Subcategories

Mina / Adriano Celentano - Fantastica / La Mia Storia (2007)

Posted By: v3122
Mina / Adriano Celentano - Fantastica / La Mia Storia (2007)

Mina / Adriano Celentano - Fantastica / La Mia Storia (2007)
EAC | Flac(Image) + Cue + Log & MP3 CBR 320Kbps
2CD | SAAR, 2590 CDB/2 | ~ 397 or 169 Mb | Scans(jpg) -> 7 Mb
Rock & Roll, Pop, Vocal, Tango

One of Italy's best-loved artists, Adriano Celentano has been equally successful in film and music. Whether singing Elvis Presley-inspired rock, as he did as a member of the Rock Boys in 1957, or romantic balladry, Celentano found a dedicated market for his music. Reaching the top of the Italian music charts with his debut single "Il Tuo Bacio e Come un Skirt" in 1959, he matched its success with the million-selling "24000 Baci (24,000 Kisses)" in 1961; "Il Ragazzo Della Via Gluck," which went on to be translated and re-recorded in 18 languages, in 1966; and Prisencolinensinainciusol in 1972.

Celentano's albums have been similarly embraced. His debut album, Non Mi Dir, reached the top position of Italy's charts in 1965. His album Soli spent 58 weeks on the charts in 1978-1979. Although he left music for nearly two decades to focus on his career as an actor, Celentano later recaptured the momentum of his early career. His comeback album, Mina + Celentano, was a major hit in 1998 while his second album, Francamente Me Ne Infischio, based on the television-variety show that he agreed to host in 1999, spent several weeks at the top of Italy's album charts. Esco di Rado – E Parlo Ancora Meno, the third album since Celentano returned to music, sold more than 600,000 copies before its release.
Celentano continued to balance his music career with his work in Italian cinema. As an actor, he made his theatrical debut in such movies as Dai, Johnny, Dai!, I Ragazzi del Jukebox, I Frenetici in 1959, and Fellini's classic La Dolce Vita in 1960. His subsequent screen appearances included roles in such films as The Sin, Rugantino, Give Me Five, Il Bisbetico Domato, and Segni Parsticolari: Bellissimo. Having made his debut as a producer and director with the 1974 film Yuppi Du, Celentano wen on to direct such films as L'atra Meta Del Cielo and Geppo Il Folle. His first long-term experience with television came in late 1987 when he agreed to host the variety show Fantastico 8.

by Craig Harris, allmusic
Mina / Adriano Celentano - Fantastica / La Mia Storia (2007)


Mina / Adriano Celentano - Fantastica / La Mia Storia (2007):

Mina / Adriano Celentano - Fantastica / La Mia Storia (2007)

Tracklist CD1:

01. Si è spento il sole [0:02:56.38]
02. Nata per me [0:02:48.52]
03. Il ribelle [0:02:21.25]
04. Rock matto [0:01:51.46]
05. La mezza luna [0:02:31.45]
06. Man smart [0:03:36.66]
07. Movimento rock [0:01:52.67]
08. Buona sera signorina [0:02:47.59]
09. Jailhouse rock [0:02:29.39]
10. Ritorna lo Shimmy [0:01:44.15]

Exact Audio Copy V0.99 prebeta 4 from 23. January 2008

EAC extraction logfile from 8. May 2008, 16:14

Mina/Adriano Celentano / Fantastica/La mia storia…

Used drive : TSSTcorpCDDVDW SH-S203B Adapter: 6 ID: 0

Read mode : Secure
Utilize accurate stream : Yes
Defeat audio cache : Yes
Make use of C2 pointers : No

Read offset correction : 6
Overread into Lead-In and Lead-Out : No
Fill up missing offset samples with silence : Yes
Delete leading and trailing silent blocks : No
Null samples used in CRC calculations : Yes
Used interface : Installed external ASPI interface

Used output format : Monkey's Audio Lossless Encoder
Selected bitrate : Fast Lossless Compression
Quality : High
Add ID3 tag : No
Command line compressor : C:\Program Files\Monkey's Audio\MAC.exe


TOC of the extracted CD

Track | Start | Length | Start sector | End sector
––––––––––––––––––––––––––––-
1 | 0:00.01 | 2:56.38 | 1 | 13238
2 | 2:56.39 | 2:48.52 | 13239 | 25890
3 | 5:45.16 | 2:21.25 | 25891 | 36490
4 | 8:06.41 | 1:51.46 | 36491 | 44861
5 | 9:58.12 | 2:31.45 | 44862 | 56231
6 | 12:29.57 | 3:36.66 | 56232 | 72497
7 | 16:06.48 | 1:52.67 | 72498 | 80964
8 | 17:59.40 | 2:47.59 | 80965 | 93548
9 | 20:47.24 | 2:29.39 | 93549 | 104762
10 | 23:16.63 | 1:44.15 | 104763 | 112577


Range status and errors

Selected range

Filename C:\uTorrent\CD\Mina_Adriano Celentano - Fantastica-La mia storia\Mina_Adriano Celentano - Fantastica-La mia storia…CD1.wav

Peak level 98.0 %
Range quality 100.0 %
Copy CRC ED9D3879
Copy OK

No errors occurred


AccurateRip summary

Track 1 not present in database
Track 2 not present in database
Track 3 not present in database
Track 4 not present in database
Track 5 not present in database
Track 6 not present in database
Track 7 not present in database
Track 8 not present in database
Track 9 not present in database
Track 10 not present in database

None of the tracks are present in the AccurateRip database

End of status report

foobar2000 1.2.9 / Dynamic Range Meter 1.1.1
log date: 2017-07-03 03:25:02

––––––––––––––––––––––––––––––––––––––––
Analyzed: Mina/Adriano Celentano / La mia storia…
––––––––––––––––––––––––––––––––––––––––

DR Peak RMS Duration Track
––––––––––––––––––––––––––––––––––––––––
DR8 -0.56 dB -10.29 dB 2:57 01-Si Рё spento il sole
DR8 -0.40 dB -12.17 dB 2:49 02-Nata per me
DR7 -0.41 dB -9.24 dB 2:21 03-Il ribelle
DR8 -0.65 dB -9.60 dB 1:52 04-Rock matto
DR8 -0.63 dB -10.21 dB 2:32 05-La mezza luna
DR10 -0.35 dB -13.33 dB 3:37 06-Man smart
DR9 -0.74 dB -11.22 dB 1:53 07-Movimento rock
DR10 -0.31 dB -11.98 dB 2:48 08-Buona sera signorina
DR9 -0.44 dB -11.24 dB 2:30 09-Jailhouse rock
DR8 -0.17 dB -9.57 dB 1:44 10-Ritorna lo Shimmy
––––––––––––––––––––––––––––––––––––––––

Number of tracks: 10
Official DR value: DR8

Samplerate: 44100 Hz
Channels: 2
Bits per sample: 16
Bitrate: 832 kbps
Codec: FLAC

[CUETools log; Date: 03.07.2017 3:24:52; Version: 2.1.4]
Pregap length 00:00:01.
[CTDB TOCID: vVYlHz_iEEsW4zHYmfjKOIKBmuo-] disk not present in database.
[AccurateRip ID: 0009c82d-004dbe29-8d05dd0a] found.
Track [ CRC | V2 ] Status
01 [b152b7a6|ed9de569] (1+0/2) Accurately ripped
02 [de978aa4|b95845a0] (1+0/2) Accurately ripped
03 [ea3893f9|2da5eff7] (1+0/2) Accurately ripped
04 [3c4c93e1|96ab0781] (1+0/2) Accurately ripped
05 [891fd3cf|22d5009d] (1+0/2) Accurately ripped
06 [b73f82a4|9a4021e1] (1+0/2) Accurately ripped
07 [5521c971|6a84c5e7] (1+0/2) Accurately ripped
08 [f48921ce|3a602df9] (1+0/2) Accurately ripped
09 [5e572c0e|4b27d867] (1+0/2) Accurately ripped
10 [b613ec9a|88bfb557] (1+0/2) Accurately ripped
Offsetted by 676:
01 [02134e70] (1/2) Accurately ripped
02 [9834ef64] (1/2) Accurately ripped
03 [e7d7a0bd] (1/2) Accurately ripped
04 [60cf950d] (1/2) Accurately ripped
05 [c0147e8b] (1/2) Accurately ripped
06 [b332b638] (1/2) Accurately ripped
07 [b454d989] (1/2) Accurately ripped
08 [5780831a] (1/2) Accurately ripped
09 [7097fc96] (1/2) Accurately ripped
10 [01e4d828] (0/2) No match

Track Peak [ CRC32 ] [W/O NULL] [ LOG ]
– 98,0 [ED9D3879] [F096ECD8] CRC32
01 93,8 [89937E28] [AFADDFED]
02 95,4 [623CD11D] [00BB8AC2]
03 95,3 [47227778] [6AF856EB]
04 92,7 [6F0E6C92] [42C2CAC0]
05 93,0 [416F7730] [641FAB56]
06 96,0 [4F352B13] [ABF2EF93]
07 91,8 [D1E8B8A3] [4BE8F50F]
08 96,4 [248536A5] [534C3C6E]
09 95,0 [9A932919] [B3E993D8]
10 98,0 [EC3D579D] [D3515CB1]

Mina / Adriano Celentano - Fantastica / La Mia Storia (2007)

Tracklist CD2:

01. E' l'uomo per me (He walks like a man) [0:02:28.47]
02. La banda (A banda) [0:02:38.70]
03. Se telefonando [0:03:00.45]
04. Valentino Vale [0:02:06.40]
05. Sono come tu mi vuoi [0:03:35.61]
06. Quando vedro' [0:03:32.27]
07. Tu non ci credi piu' [0:03:12.02]
08. Corazon [0:03:12.54]
09. Mi sei scoppiato dentro il cuore [0:03:08.29]
10. Io sono quel che sono [0:02:14.72]
11. L'immensita' [0:02:40.08]
12. Addio [0:02:31.66]
13. Canta ragazzina [0:03:04.56]
14. Cartoline [0:01:58.55]
15. Se mi compri un gelato [0:02:03.35]
16. E' inutile [0:01:57.71]
17. Sono qui per te [0:02:57.44]

Exact Audio Copy V0.99 prebeta 4 from 23. January 2008

EAC extraction logfile from 8. May 2008, 16:25

Mina / Fantastica

Used drive : TSSTcorpCDDVDW SH-S203B Adapter: 6 ID: 0

Read mode : Secure
Utilize accurate stream : Yes
Defeat audio cache : Yes
Make use of C2 pointers : No

Read offset correction : 6
Overread into Lead-In and Lead-Out : No
Fill up missing offset samples with silence : Yes
Delete leading and trailing silent blocks : No
Null samples used in CRC calculations : Yes
Used interface : Installed external ASPI interface

Used output format : Monkey's Audio Lossless Encoder
Selected bitrate : Fast Lossless Compression
Quality : High
Add ID3 tag : No
Command line compressor : C:\Program Files\Monkey's Audio\MAC.exe


TOC of the extracted CD

Track | Start | Length | Start sector | End sector
––––––––––––––––––––––––––––-
1 | 0:00.01 | 2:28.47 | 1 | 11147
2 | 2:28.48 | 2:38.70 | 11148 | 23067
3 | 5:07.43 | 3:00.45 | 23068 | 36612
4 | 8:08.13 | 2:06.40 | 36613 | 46102
5 | 10:14.53 | 3:35.61 | 46103 | 62288
6 | 13:50.39 | 3:32.27 | 62289 | 78215
7 | 17:22.66 | 3:12.02 | 78216 | 92617
8 | 20:34.68 | 3:12.54 | 92618 | 107071
9 | 23:47.47 | 3:08.29 | 107072 | 121200
10 | 26:56.01 | 2:14.72 | 121201 | 131322
11 | 29:10.73 | 2:40.08 | 131323 | 143330
12 | 31:51.06 | 2:31.66 | 143331 | 154721
13 | 34:22.72 | 3:04.56 | 154722 | 168577
14 | 37:27.53 | 1:58.55 | 168578 | 177482
15 | 39:26.33 | 2:03.35 | 177483 | 186742
16 | 41:29.68 | 1:57.71 | 186743 | 195588
17 | 43:27.64 | 2:57.44 | 195589 | 208907


Range status and errors

Selected range

Filename C:\uTorrent\CD\Mina_Adriano Celentano - Fantastica-La mia storia\Mina - Fantastica.wav

Peak level 93.8 %
Range quality 100.0 %
Copy CRC 9890D3E0
Copy OK

No errors occurred


AccurateRip summary

Track 1 not present in database
Track 2 not present in database
Track 3 not present in database
Track 4 not present in database
Track 5 not present in database
Track 6 not present in database
Track 7 not present in database
Track 8 not present in database
Track 9 not present in database
Track 10 not present in database
Track 11 not present in database
Track 12 not present in database
Track 13 not present in database
Track 14 not present in database
Track 15 not present in database
Track 16 not present in database
Track 17 not present in database

None of the tracks are present in the AccurateRip database

End of status report

foobar2000 1.2.9 / Dynamic Range Meter 1.1.1
log date: 2017-07-03 03:25:21

––––––––––––––––––––––––––––––––––––––––
Analyzed: Mina / Fantastica
––––––––––––––––––––––––––––––––––––––––

DR Peak RMS Duration Track
––––––––––––––––––––––––––––––––––––––––
DR10 -0.55 dB -14.22 dB 2:29 01-E' l'uomo per me (He walks like a man)
DR9 -1.19 dB -11.79 dB 2:39 02-La banda (A banda)
DR8 -0.75 dB -10.42 dB 3:01 03-Se telefonando
DR7 -1.63 dB -10.90 dB 2:07 04-Valentino Vale
DR9 -1.17 dB -13.05 dB 3:36 05-Sono come tu mi vuoi
DR10 -1.23 dB -15.30 dB 3:32 06-Quando vedro'
DR11 -1.52 dB -16.31 dB 3:12 07-Tu non ci credi piu'
DR11 -1.02 dB -14.53 dB 3:13 08-Corazon
DR10 -1.11 dB -13.89 dB 3:08 09-Mi sei scoppiato dentro il cuore
DR9 -0.66 dB -12.29 dB 2:15 10-Io sono quel che sono
DR8 -0.93 dB -13.16 dB 2:40 11-L'immensita'
DR10 -1.33 dB -15.43 dB 2:32 12-Addio
DR11 -1.11 dB -14.52 dB 3:05 13-Canta ragazzina
DR9 -0.91 dB -11.29 dB 1:59 14-Cartoline
DR10 -1.69 dB -13.11 dB 2:03 15-Se mi compri un gelato
DR9 -1.69 dB -13.08 dB 1:58 16-E' inutile
DR9 -1.17 dB -13.08 dB 2:58 17-Sono qui per te
––––––––––––––––––––––––––––––––––––––––

Number of tracks: 17
Official DR value: DR9

Samplerate: 44100 Hz
Channels: 2
Bits per sample: 16
Bitrate: 714 kbps
Codec: FLAC

[CUETools log; Date: 03.07.2017 3:25:24; Version: 2.1.4]
Pregap length 00:00:01.
[CTDB TOCID: CZKJ5kQ62F2l0vw_s6t_smjc_3c-] disk not present in database.
[AccurateRip ID: 001dadae-01770711-de0ae111] found.
Track [ CRC | V2 ] Status
01 [47acaae6|66804aea] (1+0/1) Accurately ripped
02 [bd33727e|6b2a4503] (1+0/1) Accurately ripped
03 [5b2e2dda|5226d903] (1+0/1) Accurately ripped
04 [b4035d6b|085c0d4e] (1+0/1) Accurately ripped
05 [f9ede7ff|743711b5] (1+0/1) Accurately ripped
06 [7506ace4|3ce9d959] (1+0/1) Accurately ripped
07 [79545d49|8a2500f3] (1+0/1) Accurately ripped
08 [ab9a3759|cb7ffef2] (1+0/1) Accurately ripped
09 [2ecf2946|2f244044] (1+0/1) Accurately ripped
10 [c48ed821|a4fc5c19] (1+0/1) Accurately ripped
11 [df037814|989af1bb] (1+0/1) Accurately ripped
12 [af824be3|0c8097d8] (1+0/1) Accurately ripped
13 [d8a12cde|da97e7bc] (1+0/1) Accurately ripped
14 [a1b3e017|cc834691] (1+0/1) Accurately ripped
15 [7e476dc9|cd806fd1] (1+0/1) Accurately ripped
16 [bd561b8b|7efc96ae] (1+0/1) Accurately ripped
17 [fb213205|4bd23b12] (1+0/1) Accurately ripped

Track Peak [ CRC32 ] [W/O NULL] [ LOG ]
– 93,8 [9890D3E0] [95A97CD1] CRC32
01 93,8 [F433C6A6] [932868D9]
02 87,2 [09787BFF] [F263A706]
03 91,7 [BA7B430C] [FBAF28B5]
04 82,8 [42B79A51] [BCF3B09B]
05 87,4 [19752747] [9BC0A81E]
06 86,7 [C6F0898F] [E6036BD1]
07 83,9 [1F156420] [2E85F321]
08 88,8 [2304B135] [93109EFC]
09 87,9 [A8520C21] [CE25BF62]
10 92,6 [99806A55] [9E7ABB29]
11 89,8 [31C3A9CA] [496BD2C9]
12 85,7 [C768A5D8] [BF55C352]
13 87,9 [35A855E9] [CCBABF18]
14 90,0 [5F5E001B] [34BD827E]
15 82,3 [9435319D] [B9270215]
16 82,3 [AF379E0F] [DCF08D2E]
17 87,3 [8A71631D] [26CE6C7A]

Mina / Adriano Celentano - Fantastica / La Mia Storia (2007)

All thanks go to bazar

Adriano Celentano in my Blog

Download Mina / Adriano Celentano - Fantastica / La Mia Storia (2007):