Tags
Language
Tags

Mind Garage - Again! - The Electric Liturgy (1970)

Posted By: v3122
Mind Garage - Again! - The Electric Liturgy (1970)

Mind Garage - Again! - The Electric Liturgy (1970)
EAC | Flac(Image) + Cue + Log & MP3 CBR 320Kbps
2020 | RCA, INTS 1168 | RU | ~ 225 or 83 Mb | Artwork(jpg) -> 3.89 Mb
Psychedelic Rock, Acid Rock

Mind Garage was an American psychedelic rock and roll band from Morgantown, West Virginia, and a progenitor of Christian rock music. Their "Electric Liturgy" performed in 1968 was the first documented Christian rock worship service, and their 1969 eponymous debut RCA album was one of the earliest Christian rock albums released…

~ wiki
Mind Garage - Again! - The Electric Liturgy (1970):

Mind Garage - Again! - The Electric Liturgy (1970)

Tracklist:

01. Tobacco Road
02. Circus Farm
03. Lucille
04. Emotion
05. Isle Of Ely
06. Jailhouse Rock
07. Paint It Black
08. Processional-Kyrie-Gloria
09. Offeratory (Sunday Christian)
10. The Lord's Prayer
11. Communion (Water)
12. Recessional

Exact Audio Copy V1.3 from 2. September 2016

EAC extraction logfile from 23. April 2021, 16:26

Mind Garage / Again! - The Electric Liturgy

Used drive : ASUS DRW-24D5MT Adapter: 1 ID: 0

Read mode : Secure
Utilize accurate stream : Yes
Defeat audio cache : Yes
Make use of C2 pointers : No

Read offset correction : 6
Overread into Lead-In and Lead-Out : No
Fill up missing offset samples with silence : Yes
Delete leading and trailing silent blocks : No
Null samples used in CRC calculations : Yes
Used interface : Native Win32 interface for Win NT & 2000
Gap handling : Appended to previous track

Used output format : User Defined Encoder
Selected bitrate : 1024 kBit/s
Quality : High
Add ID3 tag : No
Command line compressor : C:\Program Files (x86)\Exact Audio Copy\Flac\flac.exe
Additional command line options : -V -8 -T "Genre=%genre%" -T "Artist=%artist%" -T "Title=%title%" -T "Album=%albumtitle%" -T "Date=%year%" -T "Tracknumber=%tracknr%" -T "Comment=%comment%" %source%


TOC of the extracted CD

Track | Start | Length | Start sector | End sector
––––––––––––––––––––––––––––-
1 | 0:00.00 | 2:05.69 | 0 | 9443
2 | 2:05.69 | 2:56.60 | 9444 | 22703
3 | 5:02.54 | 1:29.39 | 22704 | 29417
4 | 6:32.18 | 2:10.04 | 29418 | 39171
5 | 8:42.22 | 4:39.65 | 39172 | 60161
6 | 13:22.12 | 1:24.30 | 60162 | 66491
7 | 14:46.42 | 3:38.50 | 66492 | 82891
8 | 18:25.17 | 5:09.15 | 82892 | 106081
9 | 23:34.32 | 2:18.00 | 106082 | 116431
10 | 25:52.32 | 2:16.39 | 116432 | 126670
11 | 28:08.71 | 4:15.44 | 126671 | 145839
12 | 32:24.40 | 2:30.63 | 145840 | 157152


Track 1

Filename H:\Sket4er\Mind Garage – Again! - The Electric Liturgy (1970) 2020\01 Tobacco Road.wav

Pre-gap length 0:00:02.00

Peak level 100.0 %
Extraction speed 1.0 X
Track quality 100.0 %
Test CRC 9F9A751D
Copy CRC 9F9A751D
Track not present in AccurateRip database
Copy OK

Track 2

Filename H:\Sket4er\Mind Garage – Again! - The Electric Liturgy (1970) 2020\02 Circus Farm.wav

Peak level 100.0 %
Extraction speed 1.1 X
Track quality 100.0 %
Test CRC 11EB8290
Copy CRC 11EB8290
Track not present in AccurateRip database
Copy OK

Track 3

Filename H:\Sket4er\Mind Garage – Again! - The Electric Liturgy (1970) 2020\03 Lucille.wav

Peak level 99.7 %
Extraction speed 1.0 X
Track quality 100.0 %
Test CRC DFA92603
Copy CRC DFA92603
Track not present in AccurateRip database
Copy OK

Track 4

Filename H:\Sket4er\Mind Garage – Again! - The Electric Liturgy (1970) 2020\04 Emotion.wav

Peak level 99.9 %
Extraction speed 1.2 X
Track quality 100.0 %
Test CRC 86FDA900
Copy CRC 86FDA900
Track not present in AccurateRip database
Copy OK

Track 5

Filename H:\Sket4er\Mind Garage – Again! - The Electric Liturgy (1970) 2020\05 Isle Of Ely.wav

Peak level 99.9 %
Extraction speed 1.3 X
Track quality 99.9 %
Test CRC EB85FF2B
Copy CRC EB85FF2B
Track not present in AccurateRip database
Copy OK

Track 6

Filename H:\Sket4er\Mind Garage – Again! - The Electric Liturgy (1970) 2020\06 Jailhouse Rock.wav

Peak level 100.0 %
Extraction speed 1.2 X
Track quality 100.0 %
Test CRC 5C6C3F43
Copy CRC 5C6C3F43
Track not present in AccurateRip database
Copy OK

Track 7

Filename H:\Sket4er\Mind Garage – Again! - The Electric Liturgy (1970) 2020\07 Paint It Black.wav

Peak level 99.9 %
Extraction speed 1.5 X
Track quality 100.0 %
Test CRC B0710D14
Copy CRC B0710D14
Track not present in AccurateRip database
Copy OK

Track 8

Filename H:\Sket4er\Mind Garage – Again! - The Electric Liturgy (1970) 2020\08 Processional-Kyrie-Gloria.wav

Peak level 100.0 %
Extraction speed 1.7 X
Track quality 100.0 %
Test CRC 4A5D2F76
Copy CRC 4A5D2F76
Track not present in AccurateRip database
Copy OK

Track 9

Filename H:\Sket4er\Mind Garage – Again! - The Electric Liturgy (1970) 2020\09 Offeratory (Sunday Christian).wav

Peak level 98.9 %
Extraction speed 1.5 X
Track quality 100.0 %
Test CRC F23E4C21
Copy CRC F23E4C21
Track not present in AccurateRip database
Copy OK

Track 10

Filename H:\Sket4er\Mind Garage – Again! - The Electric Liturgy (1970) 2020\10 The Lord's Prayer.wav

Peak level 100.0 %
Extraction speed 1.6 X
Track quality 100.0 %
Test CRC 7570EC04
Copy CRC 7570EC04
Track not present in AccurateRip database
Copy OK

Track 11

Filename H:\Sket4er\Mind Garage – Again! - The Electric Liturgy (1970) 2020\11 Communion (Water).wav

Peak level 100.0 %
Extraction speed 1.8 X
Track quality 100.0 %
Test CRC 45E048CA
Copy CRC 45E048CA
Track not present in AccurateRip database
Copy OK

Track 12

Filename H:\Sket4er\Mind Garage – Again! - The Electric Liturgy (1970) 2020\12 Recessional.wav

Peak level 99.9 %
Extraction speed 1.7 X
Track quality 100.0 %
Test CRC CDEDA571
Copy CRC CDEDA571
Track not present in AccurateRip database
Copy OK


None of the tracks are present in the AccurateRip database

No errors occurred

End of status report

–– CUETools DB Plugin V2.1.6

[CTDB TOCID: uC.C6c0YQ3WHyzgPU7rDgq2ib18-] disk not present in database
Submit result: uC.C6c0YQ3WHyzgPU7rDgq2ib18- has been uploaded


==== Log checksum 01C4AD7FE647383E303254D77EAF0FFF2D34391CCD32D97DAE5EAEE3B98EEA4A ====


[CUETools log; Date: 21.07.2021 11:18:07; Version: 2.1.4]
[AccurateRip ID: 000eaf9e-008c5049-9a082f0c] disk not present in database.

Track Peak [ CRC32 ] [W/O NULL] [ LOG ]
– 100,0 [C0277351] [211339E5]
01 100,0 [9F9A751D] [DC48EC24] CRC32
02 100,0 [11EB8290] [1B8E3AC4] CRC32
03 99,7 [DFA92603] [434D5D45] CRC32
04 99,9 [86FDA900] [0D6BAD3E] CRC32
05 99,9 [EB85FF2B] [E8DF8E74] CRC32
06 100,0 [5C6C3F43] [686C4728] CRC32
07 99,9 [B0710D14] [7556A7F9] CRC32
08 100,0 [4A5D2F76] [4D297452] CRC32
09 98,9 [F23E4C21] [2AF387D4] CRC32
10 100,0 [7570EC04] [4933E5F7] CRC32
11 100,0 [45E048CA] [76D3BD7C] CRC32
12 99,9 [CDEDA571] [2A784697] CRC32


Mind Garage - Again! - The Electric Liturgy (1970)

All thanks go to the original releaser

Mind Garage in my Blog

Download Mind Garage - Again! - The Electric Liturgy (1970):