Subcategories

Monster Magnet - Dopes To Infinity (1995) [Promo CDS]

Posted By: Necromandus
Monster Magnet - Dopes To Infinity (1995) [Promo CDS]

Monster Magnet - Dopes To Infinity (1995) [Promo CDS]
EAC Rip | WV, IMG+CUE+LOG | 140 MB | MP3 CBR 320 Kbps | 50 MB | Covers
Space Rock/Stoner Rock | Label: A&M | Catalog Number: 581 033-2 | RAR 3% Rec. | RS.com

"Interstellar, mind-expanding, exploratory - these are the adjectives that describe the music of Monster Magnet. Composed of members Dave Wyndorf, Ed Mundell, Joe Calandra, Jon Kleiman, Tim Cronin and Phil Caivano, these ambassadors of the inner mind make excellent tour guides as they blaze new trails into sonic space with an ever-widening assortment of bombastic rhythms, fuzz explosions and sinuous melodies."

~ StonerRock.com
Tracklist:
1. Dopes To Infinity (Edit) - 4:33
2. Dinosaur Vacume (Live BBC) - 6:27
3. Theme From "Masterburner" - 5:10
4. I'm Five Years Ahead Of My Time - 3:32

Exact Audio Copy V0.99 prebeta 4 from 23. January 2008

EAC extraction logfile from 30. November 2009, 21:39

Monster Magnet / Dopes To Infinty

Used drive : Optiarc DVD RW AD-7191A Adapter: 1 ID: 0

Read mode : Secure
Utilize accurate stream : Yes
Defeat audio cache : Yes
Make use of C2 pointers : No

Read offset correction : 6
Overread into Lead-In and Lead-Out : No
Fill up missing offset samples with silence : Yes
Delete leading and trailing silent blocks : No
Null samples used in CRC calculations : Yes
Used interface : Installed external ASPI interface

Used output format : Internal WAV Routines
Sample format : 44.100 Hz; 16 Bit; Stereo


TOC of the extracted CD

Track | Start | Length | Start sector | End sector
––––––––––––––––––––––––––––-
1 | 0:00.00 | 4:33.00 | 0 | 20474
2 | 4:33.00 | 6:26.55 | 20475 | 49479
3 | 10:59.55 | 5:09.60 | 49480 | 72714
4 | 16:09.40 | 3:32.00 | 72715 | 88614


Range status and errors

Selected range

Filename G:\-= lossless work =-\Monster Magnet - Dopes To Infinty.wav

Peak level 100.0 %
Range quality 100.0 %
Test CRC 88837F99
Copy CRC 88837F99
Copy OK

No errors occurred


AccurateRip summary

Track 1 not present in database
Track 2 not present in database
Track 3 not present in database
Track 4 not present in database

None of the tracks are present in the AccurateRip database

End of status report

auCDtect: CD records authenticity detector, version 0.8.2
Copyright © 2004 Oleg Berngardt. All rights reserved.
Copyright © 2004 Alexander Djourik. All rights reserved.
––––––––––––––––––––––––––––––
Processing file: [Monster Magnet - Dopes To Infinty.wav]
Detected average hi-boundary frequency: 2.037174e+004 Hz
Detected average lo-boundary frequency: 1.360995e+004 Hz
Detected average hi-cut frequency: 2.140477e+004 Hz
Detected average lo-cut frequency: 1.470526e+004 Hz
Maximum probablis boundary frequency: 2.189100e+004 Hz
Coefficient of nonlinearity of a phase: 1.751513e-001
First order smothness: 3.766049e-001
Second order smothness: 5.356633e-001

––––––––––––––––––––––––––––––
This track looks like CDDA with probability 100%

––––––––––––––––––––––––––––––
Final Conclusion:
––––––––––––––––––––––––––––––
These tracks looks like CDDA with probability 100%

• Joe Calandra - guitar, bass, background vocals
• Jon Kleiman - bass, percussion, drums, background vocals
• Ed Mundell - bass, guitar, background vocals
• Dave Wyndorf - organ, bass, guitar, percussion, theremin, vocals, bells, mellotron

Tracks 1,3 and 4 producer by Dave Wyndorf with Steve Rosenthal at The Magic Shop, NYC.
Track 1 edited by Dave Wyndorf, Larry Hamby and Pat Sullivan.
Track 2 released by arrangement with BBC Worldwide Ltd. First transmission date 21st May 1993.

Track 1 - Original Version appears on the album "Dopes To Infinity".
Track 3 - Taken form the album "Dopes To Infinity".
Track 2 - Taken form the album "Superjudge".
Track 4 is a 'The Third Bardo' cover.

lossless* (wv, 140Mb):
LOS.part1.rar
LOS.part2.rar

mp3 (cbr320, 50Mb):
MP3.rar

PASSWORD: Necromandus
* - EAC Image, standard LOG, embedded cuesheet, Foobar2000 ready