Tags
Language
Tags

Monty Alexander - My America (2002)

Posted By: gribovar
Monty Alexander - My America (2002)

Monty Alexander - My America (2002)
EAC Rip | FLAC (tracks+.cue+log) - 342 MB | MP3 CBR 320 kbps (LAME 3.93) - 146 MB | Covers - 9 MB
Genre: Contemporary Jazz | RAR 3% Rec. | Label: Telarc (CD-83552)

Over his long recording and performing career, Monty Alexander has displayed an ability to excel with any jazz or related genre. From swing to bop and hard bop, from reggae to mainstream jazz, you name it and Alexander has done it and done it well. On his latest and fourth album for the Telarc label, the veteran pianist takes time to show his appreciation and gratitude to his adopted home, America, through a series of songs in honor of people and images that shaped his attitude toward this country, whether it be cowboy movies he used to see as a youngster in Jamaica or the impression made upon him by a variety of American performers, including Louis Armstrong, Nat King Cole, Marvin Gaye, James Brown, and others of like diversity. Nor has he forgotten his Caribbean roots with a highly rhythmic version of Al Green's "Love and Happiness." Alexander's "Mack the Knife" is given a sort of gentile honky tonk burnish, while there is a bit of music hall piano in "Battle Hymn of the Republic" before he turns this patriotic song into a rousing swinger with gospel overtones. If this album needed a subtitle, it might be "Some of My Best Friends Are Singers," picking up on the device successfully used by his once-playing partner, Ray Brown. Alexander is joined on four cuts by Freddy Cole, John Pizzarelli, Kevin Mahogany, and Cat. As good as this vocalizing is, it's the infectious, bright playing of Alexander that lifts this album beyond the realm of the ordinary.
Tracklist:
01. Don't Fence Me In
02. Straighten Up And Fly Right
03. Love And Happiness
04. Rockin' In Riddim
05. Mack The Knife
06. Summer Wind
07. Honky Tonk
08. Hallelujah I Love Her So
09. Sex Machine (Soul/Yard Meeting)
10. Sexual Healing
11. The River Rolls On
12. Battle Hymn Of The Republic (Glory Hallelujah)

Total time: 01:02:02

Exact Audio Copy V1.0 beta 3 from 29. August 2011

Отчёт EAC об извлечении, выполненном 23. февраля 2012, 19:57

Monty Alexander / My America

Дисковод: HL-DT-STDVDRAM GSA-T20N Adapter: 3 ID: 1

Режим чтения : Достоверность
Использование точного потока : Да
Отключение кэша аудио : Да
Использование указателей C2 : Нет

Коррекция смещения при чтении : 667
Способность читать области Lead-in и Lead-out : Нет
Заполнение пропущенных сэмплов тишиной : Да
Удаление блоков с тишиной в начале и конце : Нет
При вычислениях CRC использовались нулевые сэмплы : Да
Интерфейс : Встроенный Win32-интерфейс для Win NT/2000
Обработка зазоров : Добавлено к предыдущему треку

Выходной формат : Пользовательский кодировщик
Выбранный битрейт : 128 kBit/s
Качество : Высокий
Добавление ID3-тега : Нет
Утилита сжатия : C:\Program Files\Exact Audio Copy\Flac\flac.exe
Дополнительные параметры : -8 -V -T "ARTIST=%artist%" -T "TITLE=%title%" -T "ALBUM=%albumtitle%" -T "DATE=%year%" -T "TRACKNUMBER=%tracknr%" -T "GENRE=%genre%" -T "PERFORMER=%albuminterpret%" -T "COMPOSER=%composer%" %haslyrics%–tag-from-file=LYRICS="%lyricsfile%"%haslyrics% -T "ALBUMARTIST=%albumartist%" -T "ALBUM ARTIST=%albumartist%" -T "DISCNUMBER=%cdnumber%" -T "TOTALDISCS=%totalcds%" -T "TOTALTRACKS=%numtracks%" -T "COMMENT=EAC V1.0 beta 3, Secure Mode, Test & Copy, AccurateRip, FLAC -8" %source% -o %dest%


TOC извлечённого CD

Трек | Старт | Длительность | Начальный сектор | Конечный сектор
––––––––––––––––––––––––––––––––––-
1 | 0:00.00 | 6:22.15 | 0 | 28664
2 | 6:22.15 | 3:35.67 | 28665 | 44856
3 | 9:58.07 | 4:53.37 | 44857 | 66868
4 | 14:51.44 | 6:21.67 | 66869 | 95510
5 | 21:13.36 | 2:32.32 | 95511 | 106942
6 | 23:45.68 | 2:42.12 | 106943 | 119104
7 | 26:28.05 | 3:37.53 | 119105 | 135432
8 | 30:05.58 | 3:05.08 | 135433 | 149315
9 | 33:10.66 | 11:22.45 | 149316 | 200510
10 | 44:33.36 | 6:06.05 | 200511 | 227965
11 | 50:39.41 | 4:09.48 | 227966 | 246688
12 | 54:49.14 | 7:12.74 | 246689 | 279162


Трек 1

Имя файла D:\Audio_Music\Monty Alexander My America (2002) Telarc\01. Don't Fence Me In.wav

Длина предзазора 0:00:02.00

Пиковый уровень 94.1 %
Скорость извлечения 2.7 X
Качество трека 100.0 %
CRC теста 2B79A6DA
CRC копии 2B79A6DA
Копирование… OK

Трек 2

Имя файла D:\Audio_Music\Monty Alexander My America (2002) Telarc\02. Straighten Up And Fly Right.wav

Пиковый уровень 94.3 %
Скорость извлечения 2.8 X
Качество трека 100.0 %
CRC теста AA375A4F
CRC копии AA375A4F
Копирование… OK

Трек 3

Имя файла D:\Audio_Music\Monty Alexander My America (2002) Telarc\03. Love And Happiness.wav

Пиковый уровень 94.3 %
Скорость извлечения 2.8 X
Качество трека 99.9 %
CRC теста 35F3B642
CRC копии 35F3B642
Копирование… OK

Трек 4

Имя файла D:\Audio_Music\Monty Alexander My America (2002) Telarc\04. Rock' In Riddim.wav

Пиковый уровень 93.1 %
Скорость извлечения 3.5 X
Качество трека 100.0 %
CRC теста EAE7C4D0
CRC копии EAE7C4D0
Копирование… OK

Трек 5

Имя файла D:\Audio_Music\Monty Alexander My America (2002) Telarc\05. Mack The Knife.wav

Пиковый уровень 93.7 %
Скорость извлечения 3.2 X
Качество трека 100.0 %
CRC теста 60E125E2
CRC копии 60E125E2
Копирование… OK

Трек 6

Имя файла D:\Audio_Music\Monty Alexander My America (2002) Telarc\06. Summer Wind.wav

Пиковый уровень 92.2 %
Скорость извлечения 3.4 X
Качество трека 100.0 %
CRC теста F2E87217
CRC копии F2E87217
Копирование… OK

Трек 7

Имя файла D:\Audio_Music\Monty Alexander My America (2002) Telarc\07. Honky Tonk.wav

Пиковый уровень 92.5 %
Скорость извлечения 3.6 X
Качество трека 100.0 %
CRC теста E7C474E4
CRC копии E7C474E4
Копирование… OK

Трек 8

Имя файла D:\Audio_Music\Monty Alexander My America (2002) Telarc\08. Hallelujah I Love Her So.wav

Пиковый уровень 95.5 %
Скорость извлечения 3.6 X
Качество трека 100.0 %
CRC теста 279C87D4
CRC копии 279C87D4
Копирование… OK

Трек 9

Имя файла D:\Audio_Music\Monty Alexander My America (2002) Telarc\09. Sex Machine (Soul,Yard Meeting).wav

Пиковый уровень 97.0 %
Скорость извлечения 4.3 X
Качество трека 99.9 %
CRC теста 7CBFD3D9
CRC копии 7CBFD3D9
Копирование… OK

Трек 10

Имя файла D:\Audio_Music\Monty Alexander My America (2002) Telarc\10. Sexual Healing.wav

Пиковый уровень 97.8 %
Скорость извлечения 4.6 X
Качество трека 100.0 %
CRC теста 1BC42BCE
CRC копии 1BC42BCE
Копирование… OK

Трек 11

Имя файла D:\Audio_Music\Monty Alexander My America (2002) Telarc\11. The River Rolls On.wav

Пиковый уровень 94.4 %
Скорость извлечения 4.0 X
Качество трека 99.9 %
CRC теста 89026F69
CRC копии 89026F69
Копирование… OK

Трек 12

Имя файла D:\Audio_Music\Monty Alexander My America (2002) Telarc\12. Battle Hymn Of The Republic (Glory Hallelujah).wav

Пиковый уровень 96.0 %
Скорость извлечения 5.0 X
Качество трека 100.0 %
CRC теста D2295EE2
CRC копии D2295EE2
Копирование… OK

Ошибок не произошло

Конец отчёта

==== Контрольная сумма отчёта A6AB194BC29B233E89D60F146E094DBEC68573FDC7DC4B922D41AE9D78916220 ====

[CUETools log; Date: 17.10.2021 15:15:40; Version: 2.1.4]
[CTDB TOCID: VSXp8SMvBdQPLvGnXaECbG0nUTs-] found.
Track | CTDB Status
1 | (72/72) Accurately ripped
2 | (71/72) Accurately ripped
3 | (72/72) Accurately ripped
4 | (72/72) Accurately ripped
5 | (71/72) Accurately ripped
6 | (70/72) Accurately ripped
7 | (71/72) Accurately ripped
8 | (72/72) Accurately ripped
9 | (70/72) Accurately ripped
10 | (70/72) Accurately ripped
11 | (71/72) Accurately ripped
12 | (71/72) Accurately ripped
[AccurateRip ID: 0019f4a4-00f3407d-a70e8a0c] found.
Track [ CRC | V2 ] Status
01 [2239746c|b4f224f0] (08+19/63) Accurately ripped
02 [daac50dc|cb860d3d] (09+19/64) Accurately ripped
03 [b9c83e94|94da115d] (09+19/64) Accurately ripped
04 [6fe37511|9aba6819] (08+19/63) Accurately ripped
05 [9a7a7765|3fdb9a63] (08+19/63) Accurately ripped
06 [30b6602f|aef0eb52] (09+19/64) Accurately ripped
07 [35d5ddd9|ceed469d] (09+19/64) Accurately ripped
08 [d322db38|b997b73d] (09+19/64) Accurately ripped
09 [0d3785c7|fa25061c] (09+18/63) Accurately ripped
10 [148a5adf|9d495976] (09+19/64) Accurately ripped
11 [e2071995|da33cee2] (09+19/64) Accurately ripped
12 [084b5727|10a4036b] (09+18/63) Accurately ripped
Offsetted by 635:
01 [de3dc88f] (03/63) Accurately ripped
02 [f2183fc0] (03/64) Accurately ripped
03 [d50eec91] (03/64) Accurately ripped
04 [be6c2a8b] (03/63) Accurately ripped
05 [ec4746f9] (03/63) Accurately ripped
06 [a60abee4] (03/64) Accurately ripped
07 [ccc56bf9] (03/64) Accurately ripped
08 [a4f8e550] (03/64) Accurately ripped
09 [87c69cfd] (03/63) Accurately ripped
10 [45a3a4ca] (03/64) Accurately ripped
11 [4c10b815] (03/64) Accurately ripped
12 [1ada7e65] (03/63) Accurately ripped
Offsetted by -706:
01 [faf19bf1] (02/63) Accurately ripped
02 [2e4e6599] (00/64) No match (V2 was not tested)
03 [166f1de7] (02/64) Accurately ripped
04 [5d2db710] (02/63) Accurately ripped
05 [34558e62] (00/63) No match (V2 was not tested)
06 [18ff23a2] (00/64) No match (V2 was not tested)
07 [00b073e3] (02/64) Accurately ripped
08 [2c86cf22] (02/64) Accurately ripped
09 [54cefb42] (00/63) No match (V2 was not tested)
10 [5e1718eb] (00/64) No match (V2 was not tested)
11 [6f44da3e] (00/64) No match (V2 was not tested)
12 [95c9db97] (02/63) Accurately ripped
Offsetted by -664:
01 [7d6daf42] (00/63) No match (V2 was not tested)
02 [8a66f6a1] (00/64) No match (V2 was not tested)
03 [be7a5444] (00/64) No match (V2 was not tested)
04 [ab149c00] (00/63) No match (V2 was not tested)
05 [2a747ed8] (00/63) No match (V2 was not tested)
06 [66f99ec8] (00/64) No match (V2 was not tested)
07 [ed21d393] (00/64) No match (V2 was not tested)
08 [e698a809] (00/64) No match (V2 was not tested)
09 [005d4624] (00/63) No match (V2 was not tested)
10 [45020aae] (00/64) No match (V2 was not tested)
11 [7643e3b4] (00/64) No match (V2 was not tested)
12 [ce7cad03] (00/63) No match (V2 was not tested)
Offsetted by -646:
01 [1492a3ea] (00/63) No match (V2 was not tested)
02 [2606b29d] (00/64) No match (V2 was not tested)
03 [e9af3b60] (00/64) No match (V2 was not tested)
04 [80802291] (00/63) No match (V2 was not tested)
05 [7d11eb6a] (00/63) No match (V2 was not tested)
06 [e44a4cac] (00/64) No match (V2 was not tested)
07 [900b5804] (00/64) No match (V2 was not tested)
08 [c032c992] (00/64) No match (V2 was not tested)
09 [97369258] (00/63) No match (V2 was not tested)
10 [f8226605] (00/64) No match (V2 was not tested)
11 [1482bee1] (00/64) No match (V2 was not tested)
12 [e4d58f0a] (00/63) No match (V2 was not tested)

Track Peak [ CRC32 ] [W/O NULL] [ LOG ]
– 97,8 [26F90AEE] [C608993D]
01 94,1 [2B79A6DA] [C84DF034] CRC32
02 94,3 [AA375A4F] [03EF6C39] CRC32
03 94,3 [35F3B642] [E29152CF] CRC32
04 93,1 [EAE7C4D0] [CFD3CFF6] CRC32
05 93,7 [60E125E2] [0F5A2F72] CRC32
06 92,2 [F2E87217] [908DFF3E] CRC32
07 92,5 [E7C474E4] [886608BB] CRC32
08 95,5 [279C87D4] [85D7CBF8] CRC32
09 97,0 [7CBFD3D9] [D135C625] CRC32
10 97,8 [1BC42BCE] [2E56797C] CRC32
11 94,4 [89026F69] [11BDF44E] CRC32
12 96,0 [D2295EE2] [50C6273D] CRC32

Thanks to petrash1978

See also:
Monty Alexander - Caribbean Circle (1992)
Monty Alexander - Piano Genius [Recorded 1971-1977] (2012)