Kristian Bezuidenhout - Mozart: Piano Concertos, K.413, 414, 415 (2016)

Posted By: SERTiL
Kristian Bezuidenhout - Mozart: Piano Concertos, K.413, 414, 415 (2016)

Kristian Bezuidenhout - Mozart: Piano Concertos, K.413, 414, 415
XLD Rip | FLAC (tracks)+cue, log, d. booklet | 69:27 min | 296 MB
Label: Harmonia Mundi – HMC902218 | Tracks: 09 | Rls.date: 2016
Classical

In January 1783 Mozart advertised in the Wiener Zeitung ‘the publication of three new, recently completed piano concertos’, which could even be played with quartet accompaniment – thus enabling him to reach a wider public. In similar vein, he told his father that they were ‘very brilliant and pleasing to the ear . . . Here and there only connoisseurs will derive satisfaction from them – yet in such a way that the non-connoisseur will also be pleased, without knowing why.’ It’s a fair bet that these dazzling performances by Kristian Bezuidenhout and the Freiburger Barockorchester will meet with the same unanimous approval!

“The rounded tone, singing legato in slow movements and crisp articulation he coaxes from the instrument is far removed from the honky-tonk sounds of earlier attempts at period performances of the concertos…This well-known music sounds spontaneous and freshly conceived.” (Sunday Times)

TRACKLIST

Wolfgang Amadeus Mozart (1756-1791)

Piano Concerto in A Major, K. 414
1 I. Allegro 10:03
2 II. Andante 07:43
3 III. Rondeau. Allegretto 06:08

Piano Concerto in F Major, K. 413
4 I. Allegro 09:01
5 II. Larghetto 06:41
6 III. Tempo di Menuetto 05:07

Piano Concerto in C Major, K. 415
7 I. Allegro 10:08
8 II. Andante 06:58
9 III. Rondeau. Allegro 07:38

PERSONNEL
Kristian Bezuidenhout, piano
Freiburg Baroque Orchestra
Gottfried von der Goltz, conductor

X Lossless Decoder version 20161007 (149.3)

XLD extraction logfile from 2017-02-07 20:53:07 +0100

Kristian Bezuidenhout / Piano Concertos K.413, 414, 415

Used drive : HL-DT-ST DVDRAM GH22NS50 (revision TN03)
Media type : Pressed CD

Ripper mode : XLD Secure Ripper
Disable audio cache : OK for the drive with a cache less than 1375KiB
Make use of C2 pointers : NO
Read offset correction : 667
Max retry count : 20
Gap status : Analyzed, Appended (except HTOA)

TOC of the extracted CD
Track | Start | Length | Start sector | End sector
––––––––––––––––––––––––––––-
1 | 00:00:00 | 10:03:50 | 0 | 45274
2 | 10:03:50 | 07:43:08 | 45275 | 80007
3 | 17:46:58 | 06:08:36 | 80008 | 107643
4 | 23:55:19 | 09:01:48 | 107644 | 148266
5 | 32:56:67 | 06:41:01 | 148267 | 178342
6 | 39:37:68 | 05:07:23 | 178343 | 201390
7 | 44:45:16 | 10:08:16 | 201391 | 247006
8 | 54:53:32 | 06:58:00 | 247007 | 278356
9 | 61:51:32 | 07:38:22 | 278357 | 312728

AccurateRip Summary (DiscID: 0018662d-00b0dcb8-91104909)
Track 01 : OK (v2, confidence 1/1)
Track 02 : OK (v2, confidence 1/1)
Track 03 : OK (v2, confidence 1/1)
Track 04 : OK (v2, confidence 1/1)
Track 05 : OK (v2, confidence 1/1)
Track 06 : OK (v2, confidence 1/1)
Track 07 : OK (v2, confidence 1/1)
Track 08 : OK (v2, confidence 1/1)
Track 09 : OK (v2, confidence 1/1)
->All tracks accurately ripped.

All Tracks
Album gain : 0.68 dB
Peak : 0.943268
Statistics
Read error : 0
Jitter error (maybe fixed) : 0
Retry sector count : 1
Damaged sector count : 0

Track 01
Filename : /Users/Rip/Kristian Bezuidenhout - Piano Concertos K.413, 414, 415 (2016) [FLAC]/01 Piano Concerto K.414 in A major- I. Allegro.flac
/Users/Rip/Kristian Bezuidenhout - Piano Concertos K.413, 414, 415 (2016) [MP3 320]/01 Piano Concerto K.414 in A major- I. Allegro.mp3
/Users/Rip/Kristian Bezuidenhout - Piano Concertos K.413, 414, 415 (2016) [MP3 V0]/01 Piano Concerto K.414 in A major- I. Allegro.mp3
Pre-gap length : 00:02:00

Track gain : 1.09 dB
Peak : 0.905334
CRC32 hash (test run) : 9D93DECD
CRC32 hash : 9D93DECD
CRC32 hash (skip zero) : A24AAAA3
AccurateRip v1 signature : 457F70A2
AccurateRip v2 signature : 54C08D20
->Accurately ripped (v2, confidence 1/1)
Statistics
Read error : 0
Jitter error (maybe fixed) : 0
Retry sector count : 0
Damaged sector count : 0

Track 02
Filename : /Users/Rip/Kristian Bezuidenhout - Piano Concertos K.413, 414, 415 (2016) [FLAC]/02 Piano Concerto K.414 in A major- II. Andante.flac
/Users/Rip/Kristian Bezuidenhout - Piano Concertos K.413, 414, 415 (2016) [MP3 320]/02 Piano Concerto K.414 in A major- II. Andante.mp3
/Users/Rip/Kristian Bezuidenhout - Piano Concertos K.413, 414, 415 (2016) [MP3 V0]/02 Piano Concerto K.414 in A major- II. Andante.mp3

Track gain : 2.72 dB
Peak : 0.690765
CRC32 hash (test run) : 7973AA9C
CRC32 hash : 7973AA9C
CRC32 hash (skip zero) : 566D9433
AccurateRip v1 signature : B5D49102
AccurateRip v2 signature : 11148330
->Accurately ripped (v2, confidence 1/1)
Statistics
Read error : 0
Jitter error (maybe fixed) : 0
Retry sector count : 0
Damaged sector count : 0

Track 03
Filename : /Users/Rip/Kristian Bezuidenhout - Piano Concertos K.413, 414, 415 (2016) [FLAC]/03 Piano Concerto K.414 in A major- III. Rondeau. Allegro.flac
/Users/Rip/Kristian Bezuidenhout - Piano Concertos K.413, 414, 415 (2016) [MP3 320]/03 Piano Concerto K.414 in A major- III. Rondeau. Allegro.mp3
/Users/Rip/Kristian Bezuidenhout - Piano Concertos K.413, 414, 415 (2016) [MP3 V0]/03 Piano Concerto K.414 in A major- III. Rondeau. Allegro.mp3

Track gain : 0.03 dB
Peak : 0.940887
CRC32 hash (test run) : 506E7EC9
CRC32 hash : 506E7EC9
CRC32 hash (skip zero) : 144F7F44
AccurateRip v1 signature : 5045033B
AccurateRip v2 signature : 67E676E2
->Accurately ripped (v2, confidence 1/1)
Statistics
Read error : 0
Jitter error (maybe fixed) : 0
Retry sector count : 0
Damaged sector count : 0

Track 04
Filename : /Users/Rip/Kristian Bezuidenhout - Piano Concertos K.413, 414, 415 (2016) [FLAC]/04 Piano Concerto K.413 in F major- I. Allegro.flac
/Users/Rip/Kristian Bezuidenhout - Piano Concertos K.413, 414, 415 (2016) [MP3 320]/04 Piano Concerto K.413 in F major- I. Allegro.mp3
/Users/Rip/Kristian Bezuidenhout - Piano Concertos K.413, 414, 415 (2016) [MP3 V0]/04 Piano Concerto K.413 in F major- I. Allegro.mp3

Track gain : 0.67 dB
Peak : 0.938293
CRC32 hash (test run) : 0C5EBCD9
CRC32 hash : 0C5EBCD9
CRC32 hash (skip zero) : C4AF6946
AccurateRip v1 signature : AB4471EB
AccurateRip v2 signature : E903F605
->Accurately ripped (v2, confidence 1/1)
Statistics
Read error : 0
Jitter error (maybe fixed) : 0
Retry sector count : 0
Damaged sector count : 0

Track 05
Filename : /Users/Rip/Kristian Bezuidenhout - Piano Concertos K.413, 414, 415 (2016) [FLAC]/05 Piano Concerto K.413 in F major- II. Larghetto.flac
/Users/Rip/Kristian Bezuidenhout - Piano Concertos K.413, 414, 415 (2016) [MP3 320]/05 Piano Concerto K.413 in F major- II. Larghetto.mp3
/Users/Rip/Kristian Bezuidenhout - Piano Concertos K.413, 414, 415 (2016) [MP3 V0]/05 Piano Concerto K.413 in F major- II. Larghetto.mp3

Track gain : 4.78 dB
Peak : 0.615601
CRC32 hash (test run) : E704F1E4
CRC32 hash : E704F1E4
CRC32 hash (skip zero) : 973237C8
AccurateRip v1 signature : CBD20DAB
AccurateRip v2 signature : CFA4AC94
->Accurately ripped (v2, confidence 1/1)
Statistics
Read error : 0
Jitter error (maybe fixed) : 0
Retry sector count : 0
Damaged sector count : 0

Track 06
Filename : /Users/Rip/Kristian Bezuidenhout - Piano Concertos K.413, 414, 415 (2016) [FLAC]/06 Piano Concerto K.413 in F major- III. Tempo di Menuetto.flac
/Users/Rip/Kristian Bezuidenhout - Piano Concertos K.413, 414, 415 (2016) [MP3 320]/06 Piano Concerto K.413 in F major- III. Tempo di Menuetto.mp3
/Users/Rip/Kristian Bezuidenhout - Piano Concertos K.413, 414, 415 (2016) [MP3 V0]/06 Piano Concerto K.413 in F major- III. Tempo di Menuetto.mp3

Track gain : 1.59 dB
Peak : 0.783325
CRC32 hash (test run) : 765F88D2
CRC32 hash : 765F88D2
CRC32 hash (skip zero) : 5B627102
AccurateRip v1 signature : D3577A88
AccurateRip v2 signature : 51EC758C
->Accurately ripped (v2, confidence 1/1)
Statistics
Read error : 0
Jitter error (maybe fixed) : 0
Retry sector count : 1
Damaged sector count : 0

Track 07
Filename : /Users/Rip/Kristian Bezuidenhout - Piano Concertos K.413, 414, 415 (2016) [FLAC]/07 Piano Concerto K.415 in C major- I. Allegro.flac
/Users/Rip/Kristian Bezuidenhout - Piano Concertos K.413, 414, 415 (2016) [MP3 320]/07 Piano Concerto K.415 in C major- I. Allegro.mp3
/Users/Rip/Kristian Bezuidenhout - Piano Concertos K.413, 414, 415 (2016) [MP3 V0]/07 Piano Concerto K.415 in C major- I. Allegro.mp3

Track gain : -3.12 dB
Peak : 0.943268
CRC32 hash (test run) : 56CFF133
CRC32 hash : 56CFF133
CRC32 hash (skip zero) : 4A944DC1
AccurateRip v1 signature : 09D6C638
AccurateRip v2 signature : E646AC4A
->Accurately ripped (v2, confidence 1/1)
Statistics
Read error : 0
Jitter error (maybe fixed) : 0
Retry sector count : 0
Damaged sector count : 0

Track 08
Filename : /Users/Rip/Kristian Bezuidenhout - Piano Concertos K.413, 414, 415 (2016) [FLAC]/08 Piano Concerto K.415 in C major- II. Andante.flac
/Users/Rip/Kristian Bezuidenhout - Piano Concertos K.413, 414, 415 (2016) [MP3 320]/08 Piano Concerto K.415 in C major- II. Andante.mp3
/Users/Rip/Kristian Bezuidenhout - Piano Concertos K.413, 414, 415 (2016) [MP3 V0]/08 Piano Concerto K.415 in C major- II. Andante.mp3

Track gain : 3.35 dB
Peak : 0.589081
CRC32 hash (test run) : 86D58BF5
CRC32 hash : 86D58BF5
CRC32 hash (skip zero) : 8AEA3DB6
AccurateRip v1 signature : 2FA1E3C4
AccurateRip v2 signature : 81A3FDAF
->Accurately ripped (v2, confidence 1/1)
Statistics
Read error : 0
Jitter error (maybe fixed) : 0
Retry sector count : 0
Damaged sector count : 0

Track 09
Filename : /Users/Rip/Kristian Bezuidenhout - Piano Concertos K.413, 414, 415 (2016) [FLAC]/09 Piano Concerto K.415 in C major- III. Rondeau. Allegro.flac
/Users/Rip/Kristian Bezuidenhout - Piano Concertos K.413, 414, 415 (2016) [MP3 320]/09 Piano Concerto K.415 in C major- III. Rondeau. Allegro.mp3
/Users/Rip/Kristian Bezuidenhout - Piano Concertos K.413, 414, 415 (2016) [MP3 V0]/09 Piano Concerto K.415 in C major- III. Rondeau. Allegro.mp3

Track gain : 2.18 dB
Peak : 0.943024
CRC32 hash (test run) : 28EF912C
CRC32 hash : 28EF912C
CRC32 hash (skip zero) : 772383F3
AccurateRip v1 signature : 635E6AB8
AccurateRip v2 signature : 70503780
->Accurately ripped (v2, confidence 1/1)
Statistics
Read error : 0
Jitter error (maybe fixed) : 0
Retry sector count : 0
Damaged sector count : 0

No errors occurred

End of status report

––-BEGIN XLD SIGNATURE––-
StcylgNbfZaqPlMhjjE0GDDRKVSgqrtUSlRXojYk16wwO.uU3FvvFths9Dmu8ktATt8FK0RL4.gcj6jnyH2_ykgzTLZw1AxIJRF51Pq
––-END XLD SIGNATURE––-


Thanks to the Original customer.