Subcategories

Olivier Cavé, Divertissement, Rinaldo Alessandrini - Mozart: Piano Concertos K. 415, 175 & 503 (2016)

Posted By: SERTiL
Olivier Cavé, Divertissement, Rinaldo Alessandrini - Mozart: Piano Concertos K. 415, 175 & 503 (2016)

Olivier Cavé, Divertissement, Rinaldo Alessandrini - Mozart: Piano Concertos K. 415, 175 & 503
Classical | FLAC (tracks)+cue, booklet | 77:09 min | 287 MB
Label: Alpha Classics | Tracks: 09 | Rls.date: 2016

Olivier Cavé has already made several acclaimed discs for Aeon (Clementi, Haydn, Bach, Scarlatti). This student of Nelson Goerner, Maria Tipo and Aldo Ciccolini invariably impresses listeners with the refinement of his playing. Today he presents a programme of three piano concertos with a conductor whose ventures into Mozart are always crowned with success: Rinaldo Alessandrini. They met at a concert in Toulouse and decided to record these masterpieces. Rinaldo Alessandrini hasnformed an orchestra for the occasion, which he has christened Divertissement, and together they will embark on a European tour focusing on this programme and symphonies by Mozart at the time of the CDs release. This programme follows an interesting path from Mozarts youth to his maturity, a path that runs through three concertos, from no.5, composed when he was seventeen, to no.25, written the same year as Le nozze di Figaro, by way of the joyful and and subtle Concerto no.13, which he composed in 1783. All three are stylishly and nimbly performed here by the soloist and an orchestra containing a majority of Italian musicians.

TRACKLIST
01. Piano Concerto No. 13 in C Major, K. 415/387B: I. Allegro
02. Piano Concerto No. 13 in C Major, K. 415/387B: II. Andante
03. Piano Concerto No. 13 in C Major, K. 415/387B: III. Rondeau. Allegro
04. Piano Concerto No. 5 in D Major, K. 175: I. Allegro
05. Piano Concerto No. 5 in D Major, K. 175: II. Andante ma un poco adagio
06. Piano Concerto No. 5 in D Major, K. 175: III. Allegro
07. Piano Concerto No. 25 in C Major, K. 503: I. Allegro maestoso
08. Piano Concerto No. 25 in C Major, K. 503: II. Andante
09. Piano Concerto No. 25 in C Major, K. 503: III. Allegretto

X Lossless Decoder version 20141129 (148.1)

XLD extraction logfile from 2017-02-07 22:23:49 +0100

Olivier Cavé / Mozart Piano Concertos K.415, 175, 503

Used drive : HL-DT-ST DVDRW GA11NR (revision KR06)
Media type : Pressed CD

Ripper mode : XLD Secure Ripper
Disable audio cache : OK for the drive with a cache less than 1375KiB
Make use of C2 pointers : NO
Read offset correction : 667
Max retry count : 20
Gap status : Analyzed, Appended

TOC of the extracted CD
Track | Start | Length | Start sector | End sector
––––––––––––––––––––––––––––-
1 | 00:00:00 | 10:25:45 | 0 | 46919
2 | 10:25:45 | 07:38:44 | 46920 | 81313
3 | 18:04:14 | 08:55:00 | 81314 | 121438
4 | 26:59:14 | 08:06:06 | 121439 | 157894
5 | 35:05:20 | 07:38:51 | 157895 | 192295
6 | 42:43:71 | 04:45:36 | 192296 | 213706
7 | 47:29:32 | 14:11:02 | 213707 | 277533
8 | 61:40:34 | 06:38:14 | 277534 | 307397
9 | 68:18:48 | 08:53:65 | 307398 | 347437

List of alternate offset correction values
# | Absolute | Relative | Confidence
–––––––––––––––––––––
1 | 103 | -564 | 2

AccurateRip Summary (DiscID: 001aa415-00c22705-67121809)
Track 01 : OK (v2, confidence 2/2, with different offset)
Track 02 : OK (v2, confidence 2/2, with different offset)
Track 03 : OK (v2, confidence 2/2, with different offset)
Track 04 : OK (v2, confidence 2/2, with different offset)
Track 05 : OK (v2, confidence 2/2, with different offset)
Track 06 : OK (v2, confidence 2/2, with different offset)
Track 07 : OK (v2, confidence 2/2, with different offset)
Track 08 : OK (v2, confidence 2/2, with different offset)
Track 09 : OK (v2, confidence 2/2, with different offset)
->All tracks accurately ripped.

All Tracks
Album gain : 2.40 dB
Peak : 0.949890
Statistics
Read error : 0
Jitter error (maybe fixed) : 0
Retry sector count : 0
Damaged sector count : 0

Track 01
Filename : /Users/dehors/Music/Mozart - Piano Concertos K.415, 175, 503 (Olivier Cavé, Rinaldo Alessandrini) (2016) [FLAC]/01 - Piano Concerto No.13 in C Major, K.415 - I. Allegro.flac
Pre-gap length : 00:02:00

Track gain : 1.18 dB
Peak : 0.818512
CRC32 hash (test run) : C46A2D49
CRC32 hash : C46A2D49
CRC32 hash (skip zero) : 9E196BB0
AccurateRip v1 signature : 54FA7285
AccurateRip v2 signature : 65F6B82A (159DD3B2 w/correction)
->Accurately ripped with different offset (v2, confidence 2/2, offset -564)
Statistics
Read error : 0
Jitter error (maybe fixed) : 0
Retry sector count : 0
Damaged sector count : 0

Track 02
Filename : /Users/dehors/Music/Mozart - Piano Concertos K.415, 175, 503 (Olivier Cavé, Rinaldo Alessandrini) (2016) [FLAC]/02 - Piano Concerto No.13 in C Major, K.415 - II. Andante.flac

Track gain : 7.19 dB
Peak : 0.369324
CRC32 hash (test run) : 059DA43D
CRC32 hash : 059DA43D
CRC32 hash (skip zero) : FCCD16A1
AccurateRip v1 signature : F99A3708
AccurateRip v2 signature : 1E4FDC07 (ECEF4CDB w/correction)
->Accurately ripped with different offset (v2, confidence 2/2, offset -564)
Statistics
Read error : 0
Jitter error (maybe fixed) : 0
Retry sector count : 0
Damaged sector count : 0

Track 03
Filename : /Users/dehors/Music/Mozart - Piano Concertos K.415, 175, 503 (Olivier Cavé, Rinaldo Alessandrini) (2016) [FLAC]/03 - Piano Concerto No.13 in C Major, K.415 - III. Rondeau. Allegro.flac

Track gain : 4.96 dB
Peak : 0.654907
CRC32 hash (test run) : 297B3814
CRC32 hash : 297B3814
CRC32 hash (skip zero) : 89D71BDF
AccurateRip v1 signature : 44A41F99
AccurateRip v2 signature : 64B45D9A (84330EBA w/correction)
->Accurately ripped with different offset (v2, confidence 2/2, offset -564)
Statistics
Read error : 0
Jitter error (maybe fixed) : 0
Retry sector count : 0
Damaged sector count : 0

Track 04
Filename : /Users/dehors/Music/Mozart - Piano Concertos K.415, 175, 503 (Olivier Cavé, Rinaldo Alessandrini) (2016) [FLAC]/04 - Piano Concerto No.5 in D Major, K.175 - I. Allegro.flac
Pre-gap length : 00:01:34

Track gain : 1.37 dB
Peak : 0.860962
CRC32 hash (test run) : 7029441E
CRC32 hash : 7029441E
CRC32 hash (skip zero) : 5F46352F
AccurateRip v1 signature : C879A311
AccurateRip v2 signature : 5907BF33 (EFE4B07C w/correction)
->Accurately ripped with different offset (v2, confidence 2/2, offset -564)
Statistics
Read error : 0
Jitter error (maybe fixed) : 0
Retry sector count : 0
Damaged sector count : 0

Track 05
Filename : /Users/dehors/Music/Mozart - Piano Concertos K.415, 175, 503 (Olivier Cavé, Rinaldo Alessandrini) (2016) [FLAC]/05 - Piano Concerto No.5 in D Major, K.175 - II. Andante ma un poco adagio.flac

Track gain : 4.61 dB
Peak : 0.525940
CRC32 hash (test run) : 836E1C90
CRC32 hash : 836E1C90
CRC32 hash (skip zero) : ED58A28A
AccurateRip v1 signature : 0859FD7F
AccurateRip v2 signature : 388A344E (AB2E4580 w/correction)
->Accurately ripped with different offset (v2, confidence 2/2, offset -564)
Statistics
Read error : 0
Jitter error (maybe fixed) : 0
Retry sector count : 0
Damaged sector count : 0

Track 06
Filename : /Users/dehors/Music/Mozart - Piano Concertos K.415, 175, 503 (Olivier Cavé, Rinaldo Alessandrini) (2016) [FLAC]/06 - Piano Concerto No.5 in D Major, K.175 - III. Allegro (Cad. C.Zacharias).flac

Track gain : 0.73 dB
Peak : 0.905579
CRC32 hash (test run) : EEE58CD0
CRC32 hash : EEE58CD0
CRC32 hash (skip zero) : E0E95777
AccurateRip v1 signature : 7CA4F18D
AccurateRip v2 signature : 943E0528 (DDF14D6A w/correction)
->Accurately ripped with different offset (v2, confidence 2/2, offset -564)
Statistics
Read error : 0
Jitter error (maybe fixed) : 0
Retry sector count : 0
Damaged sector count : 0

Track 07
Filename : /Users/dehors/Music/Mozart - Piano Concertos K.415, 175, 503 (Olivier Cavé, Rinaldo Alessandrini) (2016) [FLAC]/07 - Piano Concerto No.25 in C Major, K.503 - I. Allegro Maestoso (Cad. C.Zacharias).flac
Pre-gap length : 00:01:46

Track gain : 0.48 dB
Peak : 0.949890
CRC32 hash (test run) : 49E075DC
CRC32 hash : 49E075DC
CRC32 hash (skip zero) : 9A539917
AccurateRip v1 signature : 884E548F
AccurateRip v2 signature : 5C848A0A (BD0DEC92 w/correction)
->Accurately ripped with different offset (v2, confidence 2/2, offset -564)
Statistics
Read error : 0
Jitter error (maybe fixed) : 0
Retry sector count : 0
Damaged sector count : 0

Track 08
Filename : /Users/dehors/Music/Mozart - Piano Concertos K.415, 175, 503 (Olivier Cavé, Rinaldo Alessandrini) (2016) [FLAC]/08 - Piano Concerto No.25 in C Major, K.503 - II. Andante.flac

Track gain : 6.58 dB
Peak : 0.472321
CRC32 hash (test run) : 9B6ACDE5
CRC32 hash : 9B6ACDE5
CRC32 hash (skip zero) : CE83DFF1
AccurateRip v1 signature : 29D105E3
AccurateRip v2 signature : 8CEFE22F (548E2B05 w/correction)
->Accurately ripped with different offset (v2, confidence 2/2, offset -564)
Statistics
Read error : 0
Jitter error (maybe fixed) : 0
Retry sector count : 0
Damaged sector count : 0

Track 09
Filename : /Users/dehors/Music/Mozart - Piano Concertos K.415, 175, 503 (Olivier Cavé, Rinaldo Alessandrini) (2016) [FLAC]/09 - Piano Concerto No.25 in C Major, K.503 - III. Allegretto.flac

Track gain : 2.94 dB
Peak : 0.881592
CRC32 hash (test run) : 3D04A431
CRC32 hash : 3D04A431
CRC32 hash (skip zero) : 334DDDAA
AccurateRip v1 signature : 1BC32C88
AccurateRip v2 signature : 0A6891A7 (659E272E w/correction)
->Accurately ripped with different offset (v2, confidence 2/2, offset -564)
Statistics
Read error : 0
Jitter error (maybe fixed) : 0
Retry sector count : 0
Damaged sector count : 0

No errors occurred

End of status report

––-BEGIN XLD SIGNATURE––-
tUdVcvoemnMm5..twXYxaysO6bb2LaLqIpucv_UsOFiX4s9Cur3qEAyE33Z6lyfhTCSVTuIb2.OGJM52x5l9jEH6J_zqyU5dYTeeSum
––-END XLD SIGNATURE––-


Olivier Cavé, Divertissement, Rinaldo Alessandrini - Mozart: Piano Concertos K. 415, 175 & 503 (2016)


Thanks to the Original customer.