Tags
Language
Tags

Emmanuelle Haim, Le Concert d'Astree - Mozart: La finta giardiniera (2015) [Blu-Ray]

Posted By:
Emmanuelle Haim, Le Concert d'Astree - Mozart: La finta giardiniera (2015) [Blu-Ray]

Emmanuelle Haïm, Le Concert d'Astrée - Mozart: La finta giardiniera (2015) [Blu-Ray]
BluRay | BDMV | MPEG-4 AVC Video / 27994 kbps / 1080i / 29,970 fps | 176 min | 41,5 Gb
Audio1: italian / LPCM Audio / 2.0 / 16-bit | Audio2: DTS-HD MA 5.1 / 48 kHz / 2122 kbps / 16-bit

BluRay-rip | AVC | MKV 1920x1080 / 6215 kbps / 29,970 fps | 176 min | 9,49 Gb
Audio: Italian / DTS / 6ch / 48.0 KHz / 16 bits
Classical | Erato | Sub: English, French, German, Italian

In Spring 2014 Emanuelle Haïm conducted her orchestra Le Concert d'Astrée and a carefully-chosen cast in La finta giardiniera, staged by the French director David Lescot, in the cities of Lille and Dijon; the production was described by the French newspaper La Croix as “three hours of pure happiness”.
Mozart was just 18 when La finta giardiniera (The pretend gardener-girl) was first seen in early 1775, though he already had a number of operas to his name. It was another six years before the first opera of the composer’s mature canon, Idomeneo, received its premiere.
A comedy (opera buffa) with a plot of extravagant complexity, La finta giardiniera provides early evidence of Mozart’s ability to capture the more serious truths that lurk beneath a farcical surface. It has been rising in popularity in recent years, with productions in such operatic centres as Berlin and Moscow and the Glyndebourne Festival, and it will be staged at the Santa Fe Opera in New Mexico in Summer 2015. Its central character is a young noblewoman, Violante Onesti, who is disguised as a gardener and going under the name of Sandrina. She is recovering from the emotional and physical wounds inflicted on her by her former lover, Count Belfiore, who is now betrothed to the tempestuous Arminda.
This video recording from Lille joins Haïm’s Erato DVDs of operas by Monteverdi (L’incoronazione di Poppea) Rameau (Hippolyte et Aricie) and Handel (Giulio Cesare). Lescot’s striking staging provides a contemporary take on the 18th century and the designs (by Alwyne de Dardel) evoke a garden by means of plants and shrubs in large pots – notably, Arminda is symbolised by a ferociously oversized Venus Flytrap. As the plot thickens, the stage is spectacularly transformed into a forest.
As the French music magazine Diapason wrote: “A director who is skilled at marrying word and music, David Lescot took ownership of the score, sensing its pulse, its respiration, its nuances and its schisms.” The UK’s Opera magazine praised the production for its “clarity and simplicity”, judging that: “David Lescot’s direction … demonstrated how these archetypes from opera buffa could be transformed through Mozart’s music into mature characters who had developed self-knowledge … Emanuelle Haïm’s conducting … captured the sense of dramatic progression in the extended finales of the first two acts, while also allowing the final act a sense of pace and dignity … Enea Scala brilliantly conveyed Belfiore’s journey from a foppish, vainglorious figure of fun to a lover genuinely remorseful for his past mistakes, and displayed a secure, focused line in his singing. Erin Morley was an equally appealing Sandrina, with a voice of limpid clarity allied to a fine dramatic sense of her ability to transform Belfiore after their mutual moments of madness. Marie-Adeline Henry was a gloriously fiery Arminda.”

Cast:
Don Anchise, Podestat - Carlo Allemano
Sandrina (Violante) - Erin Morley
Comte Belfiore - Enea Scala
Arminda - Marie-Adeline Henry
Ramiro - Marie-Claude Chappuis
Serpetta - Maria Savastano
Nardo (Roberto) - Nikolay Borchev
Figurants - Dmitri La Sade-Dotti, Marcelo Rodrigues, Rolim de Goes
Le Concert d'Astrée
Direction musikale - Emmanuelle Haïm


Disc Title: LA FINTA GIARDINIERA
Disc Size: 44 560 365 269 bytes
Protection: AACS
BD-Java: No
Playlist: 00000.MPLS
Size: 44 559 673 344 bytes
Length: 2:56:19.969
Total Bitrate: 33,69 Mbps
Video: MPEG-4 AVC Video / 27994 kbps / 1080i / 29,970 fps / 16:9 / High Profile 4.1
Audio: Italian / LPCM Audio / 2.0 / 48 kHz / 1536 kbps / 16-bit
Audio: Italian / DTS-HD Master Audio / 5.1 / 48 kHz / 2122 kbps / 16-bit (DTS Core: 5.1 / 48 kHz / 1509 kbps / 16-bit)
Subtitle: Italian / 17,408 kbps
Subtitle: English / 18,922 kbps
Subtitle: French / 18,761 kbps
Subtitle: German / 21,539 kbps


General
Unique ID : 224519139676348636034553625617658109342 (0xA8E8D03C3B80D82E83EBFC5473D95D9E)
Complete name : C:\La_Finta_Giardiniera.mkv
Format : Matroska
Format version : Version 2
File size : 9.50 GiB
Duration : 2h 56mn
Overall bit rate : 7 711 Kbps
Movie name : La_Finta_Giardiniera
Encoded date : UTC 2017-09-27 13:03:55
Writing application : DVDFab 9.1.6.8
Writing library : libebml v0.7.8 + libmatroska v0.8.1

Video
ID : 1
Format : AVC
Format/Info : Advanced Video Codec
Format profile : High@L4.1
Format settings, CABAC : Yes
Format settings, ReFrames : 2 frames
Codec ID : V_MPEG4/ISO/AVC
Duration : 2h 56mn
Bit rate : 6 215 Kbps
Width : 1 920 pixels
Height : 1 080 pixels
Display aspect ratio : 16:9
Frame rate mode : Constant
Frame rate : 29.970 fps
Color space : YUV
Chroma subsampling : 4:2:0
Bit depth : 8 bits
Scan type : Progressive
Bits/(Pixel*Frame) : 0.100
Stream size : 7.45 GiB (78%)
Writing library : x264 core 142
Encoding settings : cabac=1 / ref=1 / deblock=1:-1:-1 / analyse=0x3:0 / me=hex / subme=5 / psy=0 / mixed_ref=0 / me_range=16 / chroma_me=1 / trellis=0 / 8x8dct=1 / cqm=0 / deadzone=21,11 / fast_pskip=1 / chroma_qp_offset=0 / threads=8 / lookahead_threads=2 / sliced_threads=0 / nr=0 / decimate=1 / interlaced=0 / bluray_compat=0 / constrained_intra=0 / bframes=2 / b_pyramid=0 / b_adapt=1 / b_bias=0 / direct=1 / weightb=1 / open_gop=0 / weightp=0 / keyint=24 / keyint_min=13 / scenecut=40 / intra_refresh=0 / rc=abr / mbtree=0 / bitrate=6215 / ratetol=1.0 / qcomp=0.60 / qpmin=0 / qpmax=69 / qpstep=4 / ip_ratio=1.40 / pb_ratio=1.30 / aq=1:1.00
Default : Yes
Forced : No
Color primaries : BT.709
Transfer characteristics : BT.709
Matrix coefficients : BT.709
Color range : Limited

Audio
ID : 2
Format : DTS
Format/Info : Digital Theater Systems
Mode : 16
Format settings, Endianness : Big
Codec ID : A_DTS
Duration : 2h 56mn
Bit rate mode : Constant
Bit rate : 1 509 Kbps
Channel(s) : 6 channels
Channel positions : Front: L C R, Side: L R, LFE
Sampling rate : 48.0 KHz
Bit depth : 16 bits
Compression mode : Lossy
Stream size : 1.86 GiB (20%)
Language : Italian
Default : Yes
Forced : No

Text #1
ID : 3
Format : VobSub
Codec ID : S_VOBSUB
Codec ID/Info : The same subtitle format used on DVDs
Language : Italian
Default : Yes
Forced : No

Text #2
ID : 4
Format : VobSub
Codec ID : S_VOBSUB
Codec ID/Info : The same subtitle format used on DVDs
Language : English
Default : No
Forced : No

Text #3
ID : 5
Format : VobSub
Codec ID : S_VOBSUB
Codec ID/Info : The same subtitle format used on DVDs
Language : French
Default : No
Forced : No

Text #4
ID : 6
Format : VobSub
Codec ID : S_VOBSUB
Codec ID/Info : The same subtitle format used on DVDs
Language : German
Default : No
Forced : No

Menu
00:00:00.000 : en:Chapter 01
00:01:42.102 : en:Chapter 02
00:06:28.388 : en:Chapter 03
00:12:23.943 : en:Chapter 04
00:18:09.388 : en:Chapter 05
00:24:46.384 : en:Chapter 06
00:28:33.912 : en:Chapter 07
00:31:54.078 : en:Chapter 08
00:37:22.340 : en:Chapter 09
00:43:02.346 : en:Chapter 10
00:47:23.240 : en:Chapter 11
00:50:58.755 : en:Chapter 12
00:54:24.461 : en:Chapter 13
01:01:19.175 : en:Chapter 14
01:14:47.783 : en:Chapter 15
01:22:51.299 : en:Chapter 16
01:27:49.764 : en:Chapter 17
01:33:11.285 : en:Chapter 18
01:38:48.722 : en:Chapter 19
01:42:30.344 : en:Chapter 20
01:50:49.542 : en:Chapter 21
01:58:13.453 : en:Chapter 22
02:00:57.216 : en:Chapter 23
02:04:30.663 : en:Chapter 24
02:07:50.129 : en:Chapter 25
02:23:00.672 : en:Chapter 26
02:24:35.566 : en:Chapter 27
02:28:41.812 : en:Chapter 28
02:31:29.580 : en:Chapter 29
02:34:42.973 : en:Chapter 30
02:48:44.914 : en:Chapter 31

All screenshots taken from BDRip

Emmanuelle Haim, Le Concert d'Astree - Mozart: La finta giardiniera (2015) [Blu-Ray]