Tags
Language
Tags

Dan Ettinger, Wiener Philharmoniker - Mozart: Le nozze di Figaro (2016) [Blu-Ray]

Posted By: Vilboa
Dan Ettinger, Wiener Philharmoniker - Mozart: Le nozze di Figaro (2016) [Blu-Ray]

Dan Ettinger, Wiener Philharmoniker - Mozart: Le nozze di Figaro (2016) [Blu-Ray]
BluRay | BDMV | MPEG-4 AVC Video / 20915 kbps / 1080i / 29,970 fps | 192 min | 39,2 Gb
Audio1: Italian / LPCM Audio / 2.0 / 24-bit | Audio2: DTS-HD Master Audio / 5.0 / 48 kHz / 3619 kbps / 24-bit

BluRay-rip | AVC | MKV 1920x1080 / 6215 kbps / 29,97 fps | 192 min | 10,4 Gb
Audio: Italian / DTS / 5ch / 48.0 KHz / 24 bits
Classical | EuroArts | Sub: English, French, German, Italian, Spanish, Japanese, Korean

Mozart’s Le nozze di Figaro is an unforgettable opera about love, desire and the primal force of uncontrollable passion. Concluding the Salzburg Festival’s highly successful Mozart / Da Ponte cycle, director Sven-Eric Bechtolf sets this emotional tour de force in a stately English country house during the 1920s. The renowned Vienna Philharmonic ensures an exceptional evening of music from Mozart’s birthplace. “Everything about the show exuded immediacy and naturalness: the intriguingly updated production by the director Sven-Eric Bechtolf; the winning performances of a compelling cast; and the supple, glowing playing that the conductor Dan Ettinger drew from the Vienna Philharmonic…”. (The New York Times)

Cast:
Il Conte Almaviva - Luca Pisaroni
La Contessa Almaviva - Anett Fritsch
Susanna - Martina Janková
Figaro - Adam Plachetka
Cherubino - Margarita Gritskova
Marcellina - Ann Murray
Don Bartolo - Carlos Chausson
Don Basilio - Paul Schweinester
Don Curzio - Franz Supper
Barbarina - Christina Gansch
Antonio - Erik Anstine
Konzertvereinigung Wiener Staatsopernchor
Wiener Philharmoniker
Conductor - Dan Ettinger


Disc Title: LE NOZZE DI FIGARO
Disc Size: 42 118 671 492 bytes
Protection: AACS
BD-Java: No
Playlist: 00000.MPLS
Size: 41 692 649 472 bytes
Length: 3:12:22.464
Total Bitrate: 28,90 Mbps
Video: MPEG-4 AVC Video / 20915 kbps / 1080i / 29,970 fps / 16:9 / High Profile 4.1
Audio: Italian / LPCM Audio / 2.0 / 48 kHz / 2304 kbps / 24-bit
Audio: Italian / DTS-HD Master Audio / 5.0 / 48 kHz / 3619 kbps / 24-bit (DTS Core: 5.0 / 48 kHz / 1509 kbps / 24-bit)
Subtitle: English / 21,453 kbps
Subtitle: German / 23,068 kbps
Subtitle: French / 21,748 kbps
Subtitle: Spanish / 19,321 kbps
Subtitle: Italian / 19,346 kbps
Subtitle: Japanese / 15,546 kbps
Subtitle: Korean / 17,675 kbps
Subtitle: English / 45,715 kbps
Subtitle: German / 45,740 kbps
Subtitle: Japanese / 45,671 kbps
Subtitle: English / 72,724 kbps
Subtitle: German / 74,819 kbps
Subtitle: Japanese / 65,518 kbps


General
Unique ID : 191975292956385981989747137093380159894 (0x906D18B61B364BB8B12CF48EA2E53996)
Complete name : C:\Le_Nozze_di_Figaro.mkv
Format : Matroska
Format version : Version 2
File size : 10.5 GiB
Duration : 3h 12mn
Overall bit rate : 7 800 Kbps
Movie name : Le_Nozze_di_Figaro
Encoded date : UTC 2017-04-08 06:04:05
Writing application : DVDFab 9.1.6.8
Writing library : libebml v0.7.8 + libmatroska v0.8.1

Video
ID : 1
Format : AVC
Format/Info : Advanced Video Codec
Format profile : High@L4.1
Format settings, CABAC : Yes
Format settings, ReFrames : 2 frames
Format settings, GOP : M=3, N=24
Codec ID : V_MPEG4/ISO/AVC
Duration : 3h 12mn
Bit rate : 6 215 Kbps
Width : 1 920 pixels
Height : 1 080 pixels
Display aspect ratio : 16:9
Frame rate mode : Constant
Frame rate : 29.970 fps
Color space : YUV
Chroma subsampling : 4:2:0
Bit depth : 8 bits
Scan type : Progressive
Bits/(Pixel*Frame) : 0.100
Stream size : 8.24 GiB (79%)
Writing library : x264 core 142
Encoding settings : cabac=1 / ref=1 / deblock=1:-1:-1 / analyse=0x3:0 / me=hex / subme=5 / psy=0 / mixed_ref=0 / me_range=16 / chroma_me=1 / trellis=0 / 8x8dct=1 / cqm=0 / deadzone=21,11 / fast_pskip=1 / chroma_qp_offset=0 / threads=8 / lookahead_threads=2 / sliced_threads=0 / nr=0 / decimate=1 / interlaced=0 / bluray_compat=0 / constrained_intra=0 / bframes=2 / b_pyramid=0 / b_adapt=1 / b_bias=0 / direct=1 / weightb=1 / open_gop=0 / weightp=0 / keyint=24 / keyint_min=13 / scenecut=40 / intra_refresh=0 / rc=abr / mbtree=0 / bitrate=6215 / ratetol=1.0 / qcomp=0.60 / qpmin=0 / qpmax=69 / qpstep=4 / ip_ratio=1.40 / pb_ratio=1.30 / aq=1:1.00
Default : Yes
Forced : No
Color primaries : BT.709
Transfer characteristics : BT.709
Matrix coefficients : BT.709
Color range : Limited

Audio
ID : 2
Format : DTS
Format/Info : Digital Theater Systems
Mode : 16
Format settings, Endianness : Big
Codec ID : A_DTS
Duration : 3h 12mn
Bit rate mode : Constant
Bit rate : 1 509 Kbps
Channel(s) : 5 channels
Channel positions : Front: L C R, Side: L R
Sampling rate : 48.0 KHz
Bit depth : 24 bits
Compression mode : Lossy
Stream size : 2.03 GiB (19%)
Language : Italian
Default : Yes
Forced : No

Text #1
ID : 3
Format : VobSub
Codec ID : S_VOBSUB
Codec ID/Info : The same subtitle format used on DVDs
Language : English
Default : Yes
Forced : No

Text #2
ID : 4
Format : VobSub
Codec ID : S_VOBSUB
Codec ID/Info : The same subtitle format used on DVDs
Language : German
Default : No
Forced : No

Text #3
ID : 5
Format : VobSub
Codec ID : S_VOBSUB
Codec ID/Info : The same subtitle format used on DVDs
Language : French
Default : No
Forced : No

Text #4
ID : 6
Format : VobSub
Codec ID : S_VOBSUB
Codec ID/Info : The same subtitle format used on DVDs
Language : Spanish
Default : No
Forced : No

Text #5
ID : 7
Format : VobSub
Codec ID : S_VOBSUB
Codec ID/Info : The same subtitle format used on DVDs
Language : Italian
Default : No
Forced : No

Text #6
ID : 8
Format : VobSub
Codec ID : S_VOBSUB
Codec ID/Info : The same subtitle format used on DVDs
Language : Japanese
Default : No
Forced : No

Text #7
ID : 9
Format : VobSub
Codec ID : S_VOBSUB
Codec ID/Info : The same subtitle format used on DVDs
Language : Korean
Default : No
Forced : No

Menu
00:00:00.000 : en:Chapter 01
00:01:56.149 : en:Chapter 02
00:06:29.389 : en:Chapter 03
00:09:24.530 : en:Chapter 04
00:10:10.309 : en:Chapter 05
00:13:07.386 : en:Chapter 06
00:15:05.371 : en:Chapter 07
00:15:58.424 : en:Chapter 08
00:18:52.431 : en:Chapter 09
00:19:59.364 : en:Chapter 10
00:23:38.383 : en:Chapter 11
00:24:30.936 : en:Chapter 12
00:26:49.608 : en:Chapter 13
00:28:51.296 : en:Chapter 14
00:32:15.533 : en:Chapter 15
00:33:51.195 : en:Chapter 16
00:35:59.891 : en:Chapter 17
00:40:59.790 : en:Chapter 18
00:42:08.659 : en:Chapter 19
00:43:25.035 : en:Chapter 20
00:44:54.892 : en:Chapter 21
00:45:57.221 : en:Chapter 22
00:47:07.191 : en:Chapter 23
00:51:21.078 : en:Chapter 24
00:55:45.775 : en:Chapter 25
00:59:53.690 : en:Chapter 26
01:01:35.692 : en:Chapter 27
01:04:52.989 : en:Chapter 28
01:06:16.439 : en:Chapter 29
01:09:34.036 : en:Chapter 30
01:12:29.078 : en:Chapter 31
01:13:56.698 : en:Chapter 32
01:17:30.045 : en:Chapter 33
01:18:29.771 : en:Chapter 34
01:19:56.391 : en:Chapter 35
01:20:17.279 : en:Chapter 36
01:22:01.883 : en:Chapter 37
01:24:50.985 : en:Chapter 38
01:26:40.328 : en:Chapter 39
01:30:38.633 : en:Chapter 40
01:34:13.848 : en:Chapter 41
01:40:14.408 : en:Chapter 42
01:44:08.742 : en:Chapter 43
01:45:38.131 : en:Chapter 44
01:47:14.594 : en:Chapter 45
01:50:08.401 : en:Chapter 46
01:50:42.369 : en:Chapter 47
01:50:50.910 : en:Chapter 48
01:56:01.554 : en:Chapter 49
01:58:15.321 : en:Chapter 50
02:03:44.784 : en:Chapter 51
02:05:08.767 : en:Chapter 52
02:05:47.773 : en:Chapter 53
02:13:04.576 : en:Chapter 54
02:13:31.903 : en:Chapter 55
02:14:01.333 : en:Chapter 56
02:16:56.575 : en:Chapter 57
02:17:24.102 : en:Chapter 58
02:18:41.479 : en:Chapter 59
02:19:31.696 : en:Chapter 60
02:20:39.130 : en:Chapter 61
02:21:50.235 : en:Chapter 62
02:22:32.844 : en:Chapter 63
02:28:25.563 : en:Chapter 64
02:30:28.919 : en:Chapter 65
02:31:40.925 : en:Chapter 66
02:32:37.982 : en:Chapter 67
02:33:25.729 : en:Chapter 68
02:34:16.747 : en:Chapter 69
02:34:55.786 : en:Chapter 70
02:35:44.902 : en:Chapter 71
02:40:29.786 : en:Chapter 72
02:40:51.008 : en:Chapter 73
02:41:27.577 : en:Chapter 74
02:46:54.237 : en:Chapter 75
02:47:32.876 : en:Chapter 76
02:48:45.348 : en:Chapter 77
02:53:11.781 : en:Chapter 78
02:57:16.225 : en:Chapter 79
02:59:15.544 : en:Chapter 80
03:10:27.983 : en:Chapter 81


All screenshots taken from Blu-ray

Dan Ettinger, Wiener Philharmoniker - Mozart: Le nozze di Figaro (2016) [Blu-Ray]
Dan Ettinger, Wiener Philharmoniker - Mozart: Le nozze di Figaro (2016) [Blu-Ray]
Dan Ettinger, Wiener Philharmoniker - Mozart: Le nozze di Figaro (2016) [Blu-Ray]
Dan Ettinger, Wiener Philharmoniker - Mozart: Le nozze di Figaro (2016) [Blu-Ray]
Dan Ettinger, Wiener Philharmoniker - Mozart: Le nozze di Figaro (2016) [Blu-Ray]