Subcategories
Tags
Language
Tags

Mr. Bungle - The Night They Came Home (2021) [BDRip 1080p]

Posted By: juanchito
Mr. Bungle - The Night They Came Home (2021) [BDRip 1080p]

Mr. Bungle - The Night They Came Home (2021)
BDRip 1080p | MKV | 1920x704 (16:9) at 23.976 fps, AVC (High@L4.1) | 6.27 GB
Audio: 448 kbps, 48 khz, 2 channels, AC-3 | Length: 01:39:00
Genre: Alternative metal, Avant-garde Metal


A reconstituted Mr. Bungle assembles in the Eureka public library to perform their unique brand of music. The audio + video release of Mr. Bungle's 2020 livestream event, The Night They Came Home. Includes performances of songs from their album, The Raging Wrath Of The Easter Bunny Demo, along with cover songs, official music videos, behind-the-scenes bonus features and celebrity guest cameos. This version of Mr. Bungle is original members Mike Patton, Trey Spruance and Trevor Dunn, joined by Scott Ian of Anthrax and Dave Lombardo of Slayer/Dead Cross.

Mr. Bungle - The Night They Came Home (2021) [BDRip 1080p]

Mr. Bungle - The Night They Came Home (2021) [BDRip 1080p]

Mr. Bungle - The Night They Came Home (2021) [BDRip 1080p]

Mr. Bungle - The Night They Came Home (2021) [BDRip 1080p]

Mr. Bungle - The Night They Came Home (2021) [BDRip 1080p]


Tracklist
01. Won't You Be My Neighbor?
02. Anarchy up Your Anus
03. Raping Your Mind
04. Bungle Grind
05. Methematics
06. Hell Awaits/Summer Breeze
07. Eracist
08. World up My Ass
09. Glutton for Punishment
10. Hypocrites/Habla Espa ol O Muere
11. Spreading the Thighs of Death
12. Loss for Words
13. Sudden Death
14. Loss of Control

General
Unique ID : 18333082619426290769673647900645765075 (0xDCAD2C269124DE95B64D9DFB451AFD3)
Complete name : A:\Roberto Cumbreta\Mr.Bungle.The.Night.They.Came.Home.2020.1080p.MBluRay.x264-TREBLE\treble-mr.bungle.the.night.they.came.home.1080.mkv
Format : Matroska
Format version : Version 4
File size : 6.27 GiB
Duration : 1 h 39 min
Overall bit rate : 9 043 kb/s
Encoded date : UTC 2021-06-11 18:03:47
Writing application : mkvmerge v57.0.0 ('Till The End') 32-bit
Writing library : libebml v1.4.2 + libmatroska v1.6.4

Video
ID : 1
Format : AVC
Format/Info : Advanced Video Codec
Format profile : High@L4.1
Format settings : CABAC / 6 Ref Frames
Format settings, CABAC : Yes
Format settings, Reference frames : 6 frames
Codec ID : V_MPEG4/ISO/AVC
Duration : 1 h 39 min
Bit rate : 8 593 kb/s
Width : 1 920 pixels
Height : 704 pixels
Display aspect ratio : 2.727
Frame rate mode : Constant
Frame rate : 23.976 (24000/1001) FPS
Color space : YUV
Chroma subsampling : 4:2:0
Bit depth : 8 bits
Scan type : Progressive
Bits/(Pixel*Frame) : 0.265
Stream size : 5.96 GiB (95%)
Writing library : x264 core 163 r3059 b684ebe
Encoding settings : cabac=1 / ref=6 / deblock=1:-3:-3 / analyse=0x3:0x133 / me=umh / subme=9 / psy=1 / psy_rd=1.00:0.00 / mixed_ref=1 / me_range=16 / chroma_me=1 / trellis=2 / 8x8dct=1 / cqm=0 / deadzone=21,11 / fast_pskip=1 / chroma_qp_offset=-2 / threads=12 / lookahead_threads=1 / sliced_threads=0 / nr=0 / decimate=1 / interlaced=0 / bluray_compat=0 / constrained_intra=0 / bframes=3 / b_pyramid=2 / b_adapt=2 / b_bias=0 / direct=3 / weightb=1 / open_gop=0 / weightp=2 / keyint=250 / keyint_min=23 / scenecut=40 / intra_refresh=0 / rc_lookahead=60 / rc=crf / mbtree=1 / crf=17.0 / qcomp=0.60 / qpmin=0 / qpmax=69 / qpstep=4 / ip_ratio=1.40 / aq=3:0.80
Language : English
Default : Yes
Forced : No
Color range : Limited
Matrix coefficients : BT.709

Audio
ID : 2
Format : AC-3
Format/Info : Audio Coding 3
Commercial name : Dolby Digital
Codec ID : A_AC3
Duration : 1 h 39 min
Bit rate mode : Constant
Bit rate : 448 kb/s
Channel(s) : 2 channels
Channel layout : L R
Sampling rate : 48.0 kHz
Frame rate : 31.250 FPS (1536 SPF)
Compression mode : Lossy
Stream size : 318 MiB (5%)
Language : English
Service kind : Complete Main
Default : Yes
Forced : No

Menu
00:00:00.000 : :Chapter 01
00:07:00.962 : :Chapter 02
00:21:11.979 : :Chapter 03
00:23:41.003 : :Chapter 04
00:25:59.933 : :Chapter 05
00:28:57.986 : :Chapter 06
00:35:19.951 : :Chapter 07
00:43:06.959 : :Chapter 08
00:51:27.960 : :Chapter 09
00:57:01.919 : :Chapter 10
01:01:53.001 : :Chapter 11
01:03:38.982 : :Chapter 12
01:08:25.935 : :Chapter 13
01:12:29.971 : :Chapter 14
01:18:38.923 : :Chapter 15
01:23:15.908 : :Chapter 16
01:31:57.971 : :Chapter 17
01:36:12.892 : :Chapter 18




Thanks to the original uploader