Tags
Language
Tags

Musica Alta Ripa - Telemann: Concertos and Chamber Music vol. 1-5 (2003-2007)

Posted By: ArlegZ
Musica Alta Ripa - Telemann: Concertos and Chamber Music vol. 1-5 (2003-2007)

Musica Alta Ripa - Telemann: Concertos and Chamber Music vol. 1-5 (2003-2007)
EAC | FLAC | Image (Cue & Log) ~ 1,62 Gb | Total time: 65:49+62:44+58:14+60:34+65:33 | Scans included
Classical | Label: MDG | # 309 1189/1250/1314/1384/1450 | Recorded: 2003, 2005, 2006

A true spate of recordings in recent years has illuminated the best qualities of Georg Philipp Telemann's chamber music, which is instrumentally colorful, adept in its combination of styles, and often possessed of sheer imagination and a delightfully cheeky sense of humor. For a great example of the kind of thing Telemann does all the time that Bach would rarely if ever do, hear the Entrée from the Ouverture for oboe d'amore, two violins, viola, and continuo in E major, TWV 55:E2 (track 6), where the music unexpectedly shifts into triple meter and back again. This recording by the Hanover, Germany-based group Musica Alta Ripa ("Alta Ripa" means high bank in English and "honovere" in Middle High German) catches these virtues of Telemann's music even if it has a few problems. The pieces heard here are for combinations of from one to five instruments, plus continuo, and there isn't a weak soloist in the bunch. All the players attack Telemann's music with gusto – which is absolutely essential in bringing it to life.
–James Manheim

Performer:
Musica Alta Ripa

Track List:
CD1:
01-04. Sonata TWV43:F1 for 2 Violins Viola and B.c. - Musica Alta Ripa
05-08. Concerto TWV51:C1 for Recorder 2 Violins Viola and B.c. - Musica Alta Ripa
09-16. Overture TWV55:fis for 2 Violins Viola and B.c. - Musica Alta Ripa
17-19. Quadro TWV:43:g4 for Recorder Violin Viola and B.c. - Musica Alta Ripa
20-23. Concerto TWV51:G9 for Viola Solo 2 Violins Viola and B.c. - Musica Alta Ripa
CD2:
01-04. Concerto TWV43:d2 in D Minor for 2 Violins Viola and B.c.
05-08. Concerto TWV52:F1 in F for Recorder Bassoon 2 Violins Viola and B.c.
09-12. Sonata TWV44:32 in F Minor for 2 Violins 2 Violas and B.c.
13-16. Sonata TWV41:D6 in D for Violoncello and B.c.
17-23. Overture TWV55:h4 in B Minor for Violin Solo 2 Violins Viola and B.c.
CD3:
01-04. Concerto TWV43:D4 in D for 2 Violins Viola and B.c.
05-08. Concerto Di Camera TWV43:g3 in G Minor for Recorder 2 Violins and B.c.
09-12. Sonatina TWV41:c2 in C Minor for Bassoon and B.c.
13-18. Overture TWV55:F2 in D for 2 Violas and B.c.
19-22. Sonatina TWV41:a4 in a Minor for Recorder and B.c.
23-28. Sonate Corellisante TWV42:h3 in B Minor for 2 Violins and B.c.
CD4:
01-04. Concerto TWV43:G5 in G for 2 Violins Viola and B.c.
05-12. Ouverture TWV55:E2 in E for Oboe D'amore 2 Violins Viola and B.c.
13-16. Concerto TWV52:B1 in B Flat for 2 Recorders 2 Violins Viola and B.c.
17-20. Sonata TWV41:D1 in D for Violin and B.c.
21-24. Concerto TWV43:a3 in a Minor for Recorder Oboe Violin and B.c.
CD5:
01-04. Concerto TWV43:A4 in a for 2 Violins Viola and B.c.
05-08. Sonata TWV42:d10 in D Minor for Recorder Violin and B.c.
09-15. Ouverture TWV55:g8 in G Minor for 2 Violins Solo 2 Violins in Ripieno and B.c.
16-18. Quadro TWV43:G6 in G for Recorder Oboe Violin and B.c.
19-22. Sonata TWV40:203 in C for 4 Violins Without Bass
23-29. Partia 5 TWV41:e1 in E Minor for Recorder and B.c.


Exact Audio Copy V1.3 from 2. September 2016

EAC extraction logfile from 20. September 2018, 19:14

Musica Alta Ripa / Telemann - Concertos and Chamber Music Vol.1

Used drive : HL-DT-STDVDRAM GH24NS95 Adapter: 1 ID: 0

Read mode : Secure
Utilize accurate stream : Yes
Defeat audio cache : Yes
Make use of C2 pointers : No

Read offset correction : 6
Overread into Lead-In and Lead-Out : No
Fill up missing offset samples with silence : Yes
Delete leading and trailing silent blocks : No
Null samples used in CRC calculations : Yes
Used interface : Native Win32 interface for Win NT & 2000

Used output format : User Defined Encoder
Selected bitrate : 128 kBit/s
Quality : High
Add ID3 tag : No
Command line compressor : C:\Program Files\Exact Audio Copy\Flac\flac.exe
Additional command line options : -V -8 -T "Date=%year%" -T "Genre=%genre%" %source%


TOC of the extracted CD

Track | Start | Length | Start sector | End sector
––––––––––––––––––––––––––––-
1 | 0:00.00 | 1:41.12 | 0 | 7586
2 | 1:41.12 | 3:00.55 | 7587 | 21141
3 | 4:41.67 | 1:57.20 | 21142 | 29936
4 | 6:39.12 | 2:23.13 | 29937 | 40674
5 | 9:02.25 | 3:29.67 | 40675 | 56416
6 | 12:32.17 | 3:42.65 | 56417 | 73131
7 | 16:15.07 | 5:02.73 | 73132 | 95854
8 | 21:18.05 | 4:18.52 | 95855 | 115256
9 | 25:36.57 | 6:59.55 | 115257 | 146736
10 | 32:36.37 | 1:54.48 | 146737 | 155334
11 | 34:31.10 | 1:16.42 | 155335 | 161076
12 | 35:47.52 | 1:22.20 | 161077 | 167246
13 | 37:09.72 | 1:41.68 | 167247 | 174889
14 | 38:51.65 | 2:42.42 | 174890 | 187081
15 | 41:34.32 | 1:43.05 | 187082 | 194811
16 | 43:17.37 | 0:59.03 | 194812 | 199239
17 | 44:16.40 | 2:04.45 | 199240 | 208584
18 | 46:21.10 | 1:51.65 | 208585 | 216974
19 | 48:13.00 | 4:36.45 | 216975 | 237719
20 | 52:49.45 | 3:06.22 | 237720 | 251691
21 | 55:55.67 | 2:39.38 | 251692 | 263654
22 | 58:35.30 | 3:39.05 | 263655 | 280084
23 | 62:14.35 | 3:32.65 | 280085 | 296049


Range status and errors

Selected range

Filename C:\Program Files\Exact Audio Copy\Flac\Telemann - Concertos and Chamber Music Vol.1.wav

Peak level 99.5 %
Extraction speed 7.8 X
Range quality 100.0 %
Test CRC 76BA553A
Copy CRC 76BA553A
Copy OK

No errors occurred

End of status report

==== Log checksum 03C185B6CEBF8EAD1241A62F521808DB5D5590438386F7600FD3FC57EA6DDA30 ====


Exact Audio Copy V1.3 from 2. September 2016

EAC extraction logfile from 20. September 2018, 19:40

Musica Alta Ripa / Telemann - Concertos and Chamber Music Vol.2

Used drive : HL-DT-STDVDRAM GH24NS95 Adapter: 1 ID: 0

Read mode : Secure
Utilize accurate stream : Yes
Defeat audio cache : Yes
Make use of C2 pointers : No

Read offset correction : 6
Overread into Lead-In and Lead-Out : No
Fill up missing offset samples with silence : Yes
Delete leading and trailing silent blocks : No
Null samples used in CRC calculations : Yes
Used interface : Native Win32 interface for Win NT & 2000

Used output format : User Defined Encoder
Selected bitrate : 128 kBit/s
Quality : High
Add ID3 tag : No
Command line compressor : C:\Program Files\Exact Audio Copy\Flac\flac.exe
Additional command line options : -V -8 -T "Date=%year%" -T "Genre=%genre%" %source%


TOC of the extracted CD

Track | Start | Length | Start sector | End sector
––––––––––––––––––––––––––––-
1 | 0:00.00 | 2:31.32 | 0 | 11356
2 | 2:31.32 | 2:15.18 | 11357 | 21499
3 | 4:46.50 | 2:06.12 | 21500 | 30961
4 | 6:52.62 | 2:49.40 | 30962 | 43676
5 | 9:42.27 | 4:25.50 | 43677 | 63601
6 | 14:08.02 | 4:16.60 | 63602 | 82861
7 | 18:24.62 | 4:24.38 | 82862 | 102699
8 | 22:49.25 | 3:43.67 | 102700 | 119491
9 | 26:33.17 | 1:20.65 | 119492 | 125556
10 | 27:54.07 | 1:48.70 | 125557 | 133726
11 | 29:43.02 | 2:01.58 | 133727 | 142859
12 | 31:44.60 | 1:57.47 | 142860 | 151681
13 | 33:42.32 | 1:55.70 | 151682 | 160376
14 | 35:38.27 | 2:44.63 | 160377 | 172739
15 | 38:23.15 | 2:08.32 | 172740 | 182371
16 | 40:31.47 | 1:57.05 | 182372 | 191151
17 | 42:28.52 | 5:30.08 | 191152 | 215909
18 | 47:58.60 | 2:10.40 | 215910 | 225699
19 | 50:09.25 | 1:27.57 | 225700 | 232281
20 | 51:37.07 | 2:51.45 | 232282 | 245151
21 | 54:28.52 | 2:35.53 | 245152 | 256829
22 | 57:04.30 | 3:08.45 | 256830 | 270974
23 | 60:13.00 | 2:30.00 | 270975 | 282224


Range status and errors

Selected range

Filename C:\Program Files\Exact Audio Copy\Flac\Telemann - Concertos and Chamber Music Vol.2.wav

Peak level 94.6 %
Extraction speed 7.9 X
Range quality 100.0 %
Test CRC 389FB5EA
Copy CRC 389FB5EA
Copy OK

No errors occurred

End of status report

==== Log checksum 95EF4C5ED970DEB4AAD2127F123189A53C46A2387E920FA7523BCF8B3983CA7C ====


Exact Audio Copy V1.3 from 2. September 2016

EAC extraction logfile from 20. September 2018, 20:08

Musica Alta Ripa / Telemann - Concertos and Chamber Music Vol.3

Used drive : HL-DT-STDVDRAM GH24NS95 Adapter: 1 ID: 0

Read mode : Secure
Utilize accurate stream : Yes
Defeat audio cache : Yes
Make use of C2 pointers : No

Read offset correction : 6
Overread into Lead-In and Lead-Out : No
Fill up missing offset samples with silence : Yes
Delete leading and trailing silent blocks : No
Null samples used in CRC calculations : Yes
Used interface : Native Win32 interface for Win NT & 2000

Used output format : User Defined Encoder
Selected bitrate : 128 kBit/s
Quality : High
Add ID3 tag : No
Command line compressor : C:\Program Files\Exact Audio Copy\Flac\flac.exe
Additional command line options : -V -8 -T "Date=%year%" -T "Genre=%genre%" %source%


TOC of the extracted CD

Track | Start | Length | Start sector | End sector
––––––––––––––––––––––––––––-
1 | 0:00.00 | 2:01.42 | 0 | 9116
2 | 2:01.42 | 2:04.70 | 9117 | 18486
3 | 4:06.37 | 1:36.55 | 18487 | 25741
4 | 5:43.17 | 2:07.55 | 25742 | 35321
5 | 7:50.72 | 3:11.40 | 35322 | 49686
6 | 11:02.37 | 5:04.00 | 49687 | 72486
7 | 16:06.37 | 1:27.25 | 72487 | 79036
8 | 17:33.62 | 4:06.63 | 79037 | 97549
9 | 21:40.50 | 1:52.62 | 97550 | 106011
10 | 23:33.37 | 1:58.25 | 106012 | 114886
11 | 25:31.62 | 2:20.23 | 114887 | 125409
12 | 27:52.10 | 2:15.10 | 125410 | 135544
13 | 30:07.20 | 3:05.62 | 135545 | 149481
14 | 33:13.07 | 1:07.15 | 149482 | 154521
15 | 34:20.22 | 0:55.23 | 154522 | 158669
16 | 35:15.45 | 1:10.02 | 158670 | 163921
17 | 36:25.47 | 2:47.33 | 163922 | 176479
18 | 39:13.05 | 1:29.27 | 176480 | 183181
19 | 40:42.32 | 2:14.13 | 183182 | 193244
20 | 42:56.45 | 1:49.40 | 193245 | 201459
21 | 44:46.10 | 2:31.60 | 201460 | 212844
22 | 47:17.70 | 1:58.65 | 212845 | 221759
23 | 49:16.60 | 2:01.15 | 221760 | 230849
24 | 51:18.00 | 1:28.55 | 230850 | 237504
25 | 52:46.55 | 0:51.30 | 237505 | 241359
26 | 53:38.10 | 1:13.00 | 241360 | 246834
27 | 54:51.10 | 1:39.22 | 246835 | 254281
28 | 56:30.32 | 1:42.40 | 254282 | 261971


Range status and errors

Selected range

Filename C:\Program Files\Exact Audio Copy\Flac\Telemann - Concertos and Chamber Music Vol.3.wav

Peak level 83.5 %
Extraction speed 7.6 X
Range quality 99.9 %
Test CRC 635E80F2
Copy CRC 635E80F2
Copy OK

No errors occurred

End of status report

==== Log checksum 8C346D1A0BCC643C8E8C5D3921C8F54FA8D45F0964C2D34F913A1D6BDF3375EA ====


Exact Audio Copy V1.3 from 2. September 2016

EAC extraction logfile from 20. September 2018, 20:39

Musica Alta Ripa / Telemann - Concertos and Chamber Music Vol.4

Used drive : HL-DT-STDVDRAM GH24NS95 Adapter: 1 ID: 0

Read mode : Secure
Utilize accurate stream : Yes
Defeat audio cache : Yes
Make use of C2 pointers : No

Read offset correction : 6
Overread into Lead-In and Lead-Out : No
Fill up missing offset samples with silence : Yes
Delete leading and trailing silent blocks : No
Null samples used in CRC calculations : Yes
Used interface : Native Win32 interface for Win NT & 2000

Used output format : User Defined Encoder
Selected bitrate : 128 kBit/s
Quality : High
Add ID3 tag : No
Command line compressor : C:\Program Files\Exact Audio Copy\Flac\flac.exe
Additional command line options : -V -8 -T "Date=%year%" -T "Genre=%genre%" %source%


TOC of the extracted CD

Track | Start | Length | Start sector | End sector
––––––––––––––––––––––––––––-
1 | 0:00.00 | 1:18.36 | 0 | 5885
2 | 1:18.36 | 2:12.14 | 5886 | 15799
3 | 3:30.50 | 2:13.28 | 15800 | 25802
4 | 5:44.03 | 4:01.03 | 25803 | 43880
5 | 9:45.06 | 6:03.22 | 43881 | 71127
6 | 15:48.28 | 1:31.50 | 71128 | 78002
7 | 17:20.03 | 2:06.57 | 78003 | 87509
8 | 19:26.60 | 2:38.37 | 87510 | 99396
9 | 22:05.22 | 1:11.59 | 99397 | 104780
10 | 23:17.06 | 0:49.06 | 104781 | 108461
11 | 24:06.12 | 1:24.27 | 108462 | 114788
12 | 25:30.39 | 3:11.46 | 114789 | 129159
13 | 28:42.10 | 1:55.52 | 129160 | 137836
14 | 30:37.62 | 1:47.21 | 137837 | 145882
15 | 32:25.08 | 2:00.60 | 145883 | 154942
16 | 34:25.68 | 2:28.16 | 154943 | 166058
17 | 36:54.09 | 4:36.38 | 166059 | 186796
18 | 41:30.47 | 3:02.06 | 186797 | 200452
19 | 44:32.53 | 1:40.31 | 200453 | 207983
20 | 46:13.09 | 3:23.48 | 207984 | 223256
21 | 49:36.57 | 3:07.36 | 223257 | 237317
22 | 52:44.18 | 1:48.59 | 237318 | 245476
23 | 54:33.02 | 1:47.60 | 245477 | 253561
24 | 56:20.62 | 4:11.26 | 253562 | 272412


Range status and errors

Selected range

Filename C:\Program Files\Exact Audio Copy\Flac\Telemann - Concertos and Chamber Music Vol.4.wav

Peak level 99.6 %
Extraction speed 7.7 X
Range quality 100.0 %
Test CRC CA1E62F9
Copy CRC CA1E62F9
Copy OK

No errors occurred

End of status report

==== Log checksum 010DD1127559A1A069C9528442C4AB987C56FF22E0BD53090A8E6454DF3F991E ====


Exact Audio Copy V1.3 from 2. September 2016

EAC extraction logfile from 20. September 2018, 21:09

Musica Alta Ripa / Telemann - Concertos and Chamber Music Vol.5

Used drive : HL-DT-STDVDRAM GH24NS95 Adapter: 1 ID: 0

Read mode : Secure
Utilize accurate stream : Yes
Defeat audio cache : Yes
Make use of C2 pointers : No

Read offset correction : 6
Overread into Lead-In and Lead-Out : No
Fill up missing offset samples with silence : Yes
Delete leading and trailing silent blocks : No
Null samples used in CRC calculations : Yes
Used interface : Native Win32 interface for Win NT & 2000

Used output format : User Defined Encoder
Selected bitrate : 128 kBit/s
Quality : High
Add ID3 tag : No
Command line compressor : C:\Program Files\Exact Audio Copy\Flac\flac.exe
Additional command line options : -V -8 -T "Date=%year%" -T "Genre=%genre%" %source%


TOC of the extracted CD

Track | Start | Length | Start sector | End sector
––––––––––––––––––––––––––––-
1 | 0:00.00 | 2:11.32 | 0 | 9856
2 | 2:11.32 | 2:06.28 | 9857 | 19334
3 | 4:17.60 | 1:46.02 | 19335 | 27286
4 | 6:03.62 | 3:01.56 | 27287 | 40917
5 | 9:05.43 | 2:28.16 | 40918 | 52033
6 | 11:33.59 | 2:17.54 | 52034 | 62362
7 | 13:51.38 | 2:41.11 | 62363 | 74448
8 | 16:32.49 | 1:51.44 | 74449 | 82817
9 | 18:24.18 | 4:58.25 | 82818 | 105192
10 | 23:22.43 | 1:16.38 | 105193 | 110930
11 | 24:39.06 | 1:59.01 | 110931 | 119856
12 | 26:38.07 | 2:13.24 | 119857 | 129855
13 | 28:51.31 | 1:29.28 | 129856 | 136558
14 | 30:20.59 | 5:34.42 | 136559 | 161650
15 | 35:55.26 | 3:11.70 | 161651 | 176045
16 | 39:07.21 | 2:36.22 | 176046 | 187767
17 | 41:43.43 | 2:08.47 | 187768 | 197414
18 | 43:52.15 | 2:47.38 | 197415 | 209977
19 | 46:39.53 | 1:32.09 | 209978 | 216886
20 | 48:11.62 | 3:05.20 | 216887 | 230781
21 | 51:17.07 | 2:13.10 | 230782 | 240766
22 | 53:30.17 | 1:38.15 | 240767 | 248131
23 | 55:08.32 | 1:51.41 | 248132 | 256497
24 | 56:59.73 | 1:23.06 | 256498 | 262728
25 | 58:23.04 | 0:57.42 | 262729 | 267045
26 | 59:20.46 | 1:06.18 | 267046 | 272013
27 | 60:26.64 | 2:56.61 | 272014 | 285274
28 | 63:23.50 | 1:24.70 | 285275 | 291644
29 | 64:48.45 | 0:42.42 | 291645 | 294836


Range status and errors

Selected range

Filename C:\Program Files\Exact Audio Copy\Flac\Telemann - Concertos and Chamber Music Vol.5.wav

Peak level 91.3 %
Extraction speed 8.0 X
Range quality 100.0 %
Test CRC E54BD63B
Copy CRC E54BD63B
Copy OK

No errors occurred

End of status report

==== Log checksum 33D98D7D9F77CF967BC7B935F4760C147DC97465549B85A4D556E6D5F434DC7E ====