Subcategories

New Zealand Symphony Orchestra - The Devil And Daniel Webster (1994)

Posted By: TestTickles
New Zealand Symphony Orchestra - The Devil And Daniel Webster (1994)

New Zealand Symphony Orchestra - The Devil And Daniel Webster (1994)
EAC Rip | FLAC with CUE and log | scans | 197 mb
MP3 CBR 320kbps | RAR | 136 mb
Genre: classical

The Devil And Daniel Webster is the 1994 album by the New Zealand Symphony Orchestra. This was released by Koch International Classics.

New Zealand Symphony Orchestra - The Devil And Daniel Webster (1994)

The Devil and Daniel Webster [1942] [20:01] Suite for Orchestra
1. Mr. Scratch: Allegro Moderato e Agitato (5:31)
2. Ballad of Springfield Mountain: Andante tranquillo (4:34)
3. Sleighride: Allegro con brio (1:54)
4. The Miser's Waltz: Tempo de Valse Lente (5:17)
5. Swing Your Partners: Allegro Vivace (2:33)

Silent Noon [1943] - an idyll
6. Silent Noon (10:35)

For The Fallen [1943] - a berceuse
7. For The Fallen (6:52)

Currier & Ives Suite [1935] [13:16]
8. I. The Whirlwind Skater: Presto (1:36)
9. II. Waltz: Moderato (4:45)
10. III. Gallop - The Whip: Allegro (2:18)
11. IV. The Fat Man: Slow (2:27)
12. V. Torchlight Finale: Allegro Molto (1:59)

Produced & engineered by Michael Fine
Assistant producer: Tamra Saylor Fine
Technical assistance:
Geoffrey Eyles

Exact Audio Copy V1.1 from 23. June 2015

EAC extraction logfile from 25. April 2017, 10:03

New Zealand Symphony Orchestra / The Devil And Daniel Webster

Used drive : TEAC DVD-ROM DV-28SW Adapter: 1 ID: 0

Read mode : Secure
Utilize accurate stream : Yes
Defeat audio cache : Yes
Make use of C2 pointers : No

Read offset correction : 6
Overread into Lead-In and Lead-Out : No
Fill up missing offset samples with silence : Yes
Delete leading and trailing silent blocks : No
Null samples used in CRC calculations : Yes
Used interface : Native Win32 interface for Win NT & 2000
Gap handling : Appended to previous track

Used output format : Internal WAV Routines
Sample format : 44.100 Hz; 16 Bit; Stereo


TOC of the extracted CD

Track | Start | Length | Start sector | End sector
––––––––––––––––––––––––––––-
1 | 0:00.00 | 5:30.05 | 0 | 24754
2 | 5:30.05 | 4:36.63 | 24755 | 45517
3 | 10:06.68 | 1:58.30 | 45518 | 54397
4 | 12:05.23 | 5:21.52 | 54398 | 78524
5 | 17:27.00 | 2:45.60 | 78525 | 90959
6 | 20:12.60 | 10:44.73 | 90960 | 139332
7 | 30:57.58 | 7:01.32 | 139333 | 170939
8 | 37:59.15 | 1:37.10 | 170940 | 178224
9 | 39:36.25 | 4:45.50 | 178225 | 199649
10 | 44:22.00 | 2:17.63 | 199650 | 209987
11 | 46:39.63 | 2:27.42 | 209988 | 221054
12 | 49:07.30 | 2:00.13 | 221055 | 230067


Track 1

Filename C:\My Documents\My FLAC\New Zealand Symphony Orchestra - The Devil And Daniel Webster (1994) [FLAC]\01 - The Devil And Daniel Webster.wav

Pre-gap length 0:00:02.00

Peak level 91.4 %
Extraction speed 2.5 X
Track quality 100.0 %
Test CRC 6B73DD0E
Copy CRC 6B73DD0E
Accurately ripped (confidence 8) [1EC1831C] (AR v2)
Copy OK

Track 2

Filename C:\My Documents\My FLAC\New Zealand Symphony Orchestra - The Devil And Daniel Webster (1994) [FLAC]\02 - Ballad Of Springfield Mountain.wav

Peak level 12.6 %
Extraction speed 2.9 X
Track quality 100.0 %
Test CRC 6E7D2901
Copy CRC 6E7D2901
Accurately ripped (confidence 8) [E2160E20] (AR v2)
Copy OK

Track 3

Filename C:\My Documents\My FLAC\New Zealand Symphony Orchestra - The Devil And Daniel Webster (1994) [FLAC]\03 - Sleighride.wav

Peak level 32.3 %
Extraction speed 2.6 X
Track quality 100.0 %
Test CRC DB53E091
Copy CRC DB53E091
Accurately ripped (confidence 8) [89255173] (AR v2)
Copy OK

Track 4

Filename C:\My Documents\My FLAC\New Zealand Symphony Orchestra - The Devil And Daniel Webster (1994) [FLAC]\04 - The Miser's Waltz.wav

Peak level 36.1 %
Extraction speed 2.9 X
Track quality 99.9 %
Test CRC A7119B39
Copy CRC A7119B39
Accurately ripped (confidence 8) [EF6BF57C] (AR v2)
Copy OK

Track 5

Filename C:\My Documents\My FLAC\New Zealand Symphony Orchestra - The Devil And Daniel Webster (1994) [FLAC]\05 - Swing Your Partners.wav

Peak level 79.3 %
Extraction speed 2.6 X
Track quality 100.0 %
Test CRC DC169FCF
Copy CRC DC169FCF
Accurately ripped (confidence 8) [644CF84F] (AR v2)
Copy OK

Track 6

Filename C:\My Documents\My FLAC\New Zealand Symphony Orchestra - The Devil And Daniel Webster (1994) [FLAC]\06 - Silent Noon.wav

Peak level 9.9 %
Extraction speed 3.6 X
Track quality 100.0 %
Test CRC 4372B305
Copy CRC 4372B305
Accurately ripped (confidence 8) [221E2415] (AR v2)
Copy OK

Track 7

Filename C:\My Documents\My FLAC\New Zealand Symphony Orchestra - The Devil And Daniel Webster (1994) [FLAC]\07 - For The Fallen.wav

Peak level 23.6 %
Extraction speed 4.0 X
Track quality 100.0 %
Test CRC A7B62034
Copy CRC A7B62034
Accurately ripped (confidence 8) [5E757E9D] (AR v2)
Copy OK

Track 8

Filename C:\My Documents\My FLAC\New Zealand Symphony Orchestra - The Devil And Daniel Webster (1994) [FLAC]\08 - Currier & Ives Suite- I. The Whirlwind Skater.wav

Peak level 50.3 %
Extraction speed 3.6 X
Track quality 100.0 %
Test CRC 9C06DDE7
Copy CRC 9C06DDE7
Accurately ripped (confidence 8) [EFF48F58] (AR v2)
Copy OK

Track 9

Filename C:\My Documents\My FLAC\New Zealand Symphony Orchestra - The Devil And Daniel Webster (1994) [FLAC]\09 - Currier & Ives Suite- II. Waltz- Moderato.wav

Peak level 69.2 %
Extraction speed 3.9 X
Track quality 100.0 %
Test CRC 448BCDA3
Copy CRC 448BCDA3
Accurately ripped (confidence 8) [79E993EC] (AR v2)
Copy OK

Track 10

Filename C:\My Documents\My FLAC\New Zealand Symphony Orchestra - The Devil And Daniel Webster (1994) [FLAC]\10 - Currier & Ives Suite- III. Gallop - The Whip- Allegro.wav

Peak level 69.2 %
Extraction speed 3.5 X
Track quality 100.0 %
Test CRC E5E07102
Copy CRC E5E07102
Accurately ripped (confidence 8) [6AF1B780] (AR v2)
Copy OK

Track 11

Filename C:\My Documents\My FLAC\New Zealand Symphony Orchestra - The Devil And Daniel Webster (1994) [FLAC]\11 - Currier & Ives Suite- IV. The Fat Man- Slow.wav

Peak level 67.0 %
Extraction speed 2.9 X
Track quality 100.0 %
Test CRC 3AA2DFD8
Copy CRC 3AA2DFD8
Accurately ripped (confidence 8) [82AB952A] (AR v2)
Copy OK

Track 12

Filename C:\My Documents\My FLAC\New Zealand Symphony Orchestra - The Devil And Daniel Webster (1994) [FLAC]\12 - Currier & Ives Suite- V. Torchlight Finale- Allegro Molto.wav

Peak level 70.7 %
Extraction speed 2.9 X
Track quality 99.9 %
Test CRC 3E45F72A
Copy CRC 3E45F72A
Accurately ripped (confidence 8) [088BC7C9] (AR v2)
Copy OK


All tracks accurately ripped

No errors occurred

End of status report

–– CUETools DB Plugin V2.1.6

[CTDB TOCID: JPGO9PLpKad3NA6ETFDShqDuk30-] found
Submit result: JPGO9PLpKad3NA6ETFDShqDuk30- has been confirmed
Track | CTDB Status
1 | (8/8) Accurately ripped
2 | (8/8) Accurately ripped
3 | (8/8) Accurately ripped
4 | (8/8) Accurately ripped
5 | (8/8) Accurately ripped
6 | (8/8) Accurately ripped
7 | (8/8) Accurately ripped
8 | (8/8) Accurately ripped
9 | (8/8) Accurately ripped
10 | (8/8) Accurately ripped
11 | (8/8) Accurately ripped
12 | (8/8) Accurately ripped


==== Log checksum CCA06FD3C87FA2DBC2C61F46BD0D82723A90EB5B367A80E59A6ED40C933C7FEF ====


New Zealand Symphony Orchestra - The Devil And Daniel Webster (1994)