Tags
Language
Tags

Neville Marriner, Academy of St. Martin in the Fields - Haydn: Symphonies Nos. 6 "Le Matin", 7 "Le Midi", 8 "Le Soir" (1984)

Posted By:
Neville Marriner, Academy of St. Martin in the Fields - Haydn: Symphonies Nos. 6 "Le Matin", 7 "Le Midi", 8 "Le Soir" (1984)

Neville Marriner, Academy of St. Martin in the Fields - Haydn: Symphonies Nos. 6 "Le Matin", 7 "Le Midi", 8 "Le Soir" (1984)
EAC | FLAC | Image (Cue & Log) ~ 242 Mb | Total time: 58:38 | Scans included
Classical | Label: Philips | 411 441-2 | Recorded: 1980

These three early symphonies join the series of ASMF/Marriner recordings of all the 'named' symphonies of Haydn. They are delightfully lightweight with unusual prominence given to the woodwind, and they receive here wholly enjoyable 'chamber-music' style performances of great style and precision. The recorded balance has ideal spread and depth, the harpsichord being just in evidence. The sum of its many musical and technical virtues makes this CD compulsive listening through every one of its 13 movements.
– Gramophone

Performer:
Academy of St. Martin in the Fields
Neville Marriner, conductor

Track List:
Symphony In D, Hob. I:6 "Le Matin"
01. Adagio - Allegro
02. Adagio
03. Menuet
04. Finale (Allegro)
Symphony In C, Hob. I:7 "Le Midi"
05. Adagio - Allegro
06. Recitativo (Adagio - Allegro - Adagio)
07. Adagio
08. Menuetto
09. Finale (Allegro)
Symphony In G, Hob. I:8 "Le Soir"
10. Allegro Molto
11. Andante
12. Menuetto
13. Presto "La Tempesta"


Exact Audio Copy V1.3 from 2. September 2016

EAC extraction logfile from 23. January 2020, 14:20

Sir Neville Marriner / Haydn: Symphonies Nos. 6, 7 & 8

Used drive : HL-DT-STDVDRAM GH24NSD5 Adapter: 1 ID: 0

Read mode : Secure
Utilize accurate stream : Yes
Defeat audio cache : Yes
Make use of C2 pointers : No

Read offset correction : 6
Overread into Lead-In and Lead-Out : No
Fill up missing offset samples with silence : Yes
Delete leading and trailing silent blocks : No
Null samples used in CRC calculations : Yes
Used interface : Native Win32 interface for Win NT & 2000

Used output format : User Defined Encoder
Selected bitrate : 896 kBit/s
Quality : High
Add ID3 tag : No
Command line compressor : C:\Program Files (x86)\Exact Audio Copy\FLAC\FLAC.EXE
Additional command line options : -6 -V -T "ARTIST=%artist%" -T "TITLE=%title%" -T "ALBUM=%albumtitle%" -T "DATE=%year%" -T "TRACKNUMBER=%tracknr%" -T "GENRE=%genre%" -T "COMMENT=%comment%" -T "BAND=%albuminterpret%" -T "ALBUMARTIST=%albuminterpret%" -T "COMPOSER=%composer%" %haslyrics%–tag-from-file=LYRICS="%lyricsfile%"%haslyrics% -T "DISCNUMBER=%cdnumber%" -T "TOTALDISCS=%totalcds%" -T "TOTALTRACKS=%numtracks%" %hascover%–picture="%coverfile%"%hascover% %source% -o %dest%


TOC of the extracted CD

Track | Start | Length | Start sector | End sector
––––––––––––––––––––––––––––-
1 | 0:00.33 | 4:07.37 | 33 | 18594
2 | 4:07.70 | 6:53.03 | 18595 | 49572
3 | 11:00.73 | 4:31.60 | 49573 | 69957
4 | 15:32.58 | 3:14.62 | 69958 | 84569
5 | 18:47.45 | 5:21.38 | 84570 | 108682
6 | 24:09.08 | 2:48.17 | 108683 | 121299
7 | 26:57.25 | 6:50.68 | 121300 | 152117
8 | 33:48.18 | 3:55.62 | 152118 | 169804
9 | 37:44.05 | 3:01.33 | 169805 | 183412
10 | 40:45.38 | 3:53.02 | 183413 | 200889
11 | 44:38.40 | 5:34.00 | 200890 | 225939
12 | 50:12.40 | 4:45.38 | 225940 | 247352
13 | 54:58.03 | 3:39.55 | 247353 | 263832


Range status and errors

Selected range

Filename I:\Rips\Haydn J - Symphonies Nos. 6-8 - Marriner\Sir Neville Marriner - Haydn- Symphonies Nos. 6, 7 & 8.wav

Peak level 67.2 %
Extraction speed 1.8 X
Range quality 100.0 %
Test CRC 696340C4
Copy CRC 696340C4
Copy OK

No errors occurred


AccurateRip summary

Track 1 accurately ripped (confidence 35) [64AECDE4] (AR v2)
Track 2 accurately ripped (confidence 36) [DA810380] (AR v2)
Track 3 accurately ripped (confidence 35) [6ACD5144] (AR v2)
Track 4 accurately ripped (confidence 36) [FB4AA421] (AR v2)
Track 5 accurately ripped (confidence 36) [1477032D] (AR v2)
Track 6 accurately ripped (confidence 36) [D7638136] (AR v2)
Track 7 accurately ripped (confidence 36) [9AC0A56E] (AR v2)
Track 8 accurately ripped (confidence 36) [69DAF004] (AR v2)
Track 9 accurately ripped (confidence 36) [4B9A7E2C] (AR v2)
Track 10 accurately ripped (confidence 36) [89A0C4BC] (AR v2)
Track 11 accurately ripped (confidence 35) [E456E5D6] (AR v2)
Track 12 accurately ripped (confidence 36) [20406B01] (AR v2)
Track 13 accurately ripped (confidence 35) [6DE9BDF4] (AR v2)

All tracks accurately ripped

End of status report

–– CUETools DB Plugin V2.1.6

[CTDB TOCID: 70bixoENepi5sJqaJVAHYQ1Q6dE-] found
Submit result: 70bixoENepi5sJqaJVAHYQ1Q6dE- has been confirmed
Track | CTDB Status
1 | (64/65) Accurately ripped
2 | (63/65) Accurately ripped
3 | (63/65) Accurately ripped
4 | (63/65) Accurately ripped
5 | (63/65) Accurately ripped
6 | (63/65) Accurately ripped
7 | (63/65) Accurately ripped
8 | (62/65) Accurately ripped
9 | (63/65) Accurately ripped
10 | (63/65) Accurately ripped
11 | (62/65) Accurately ripped
12 | (62/65) Accurately ripped
13 | (61/65) Accurately ripped


==== Log checksum 3CCF8C9C96BF02D9BA9E15BF2BB48BBB03E10DE2F047CEC29D20B5B7C94F87F0 ====

Neville Marriner, Academy of St. Martin in the Fields - Haydn: Symphonies Nos. 6 "Le Matin", 7 "Le Midi", 8 "Le Soir" (1984)

Thanks to the original releaser