Tags
Language
Tags

Neville Marriner, Academy of St Martin in the Fields - Johann Sebastian Bach: Brandenburg Concertos, Orchestral Suites (2007)

Posted By: ArlegZ
Neville Marriner, Academy of St Martin in the Fields - Johann Sebastian Bach: Brandenburg Concertos, Orchestral Suites (2007)

Neville Marriner, Academy of St Martin in the Fields - Johann Sebastian Bach: Brandenburg Concertos, Orchestral Suites (2007)
EAC | FLAC | Image (Cue & Log) ~ 914 Mb | Total time: 191:35 | Scans included
Classical | Label: EMI Classics | # 5 00955 2 | Recorded: 1984, 1985

While most serious listeners already have their favorite sets of J.S. Bach's Brandenburg Concertos and the Orchestral Suites, newcomers searching for respectable recordings at a reasonable price would do well to start with this triple-CD set by Neville Marriner and the Academy of St. Martin-in-the-Fields. These recordings were made in 1984 and 1985, and still offer fine sound for early digital recording and exceptional musical value. Marriner's performances may not be as exacting and scrupulous about Baroque performance practice as those of Gustav Leonhardt or Trevor Pinnock, but they are informed by serious scholarship and have sufficient appeal to make the finer points debatable. The playing is, as always, impeccably clean, deeply musical, and reasonably authentic in execution, even though the Academy uses modern instruments, a rub for purists. While these performances lack the charming timbres of period instruments and are possibly too full-sounding for connoisseurs of a leaner Baroque sound, the fair-minded listener will not find them deficient at all in spirit or color. The Brandenburg Concertos are robust and exciting, and the soloists are all first-rate. Especially noteworthy, George Malcolm's harpsichord solo in the Brandenburg Concerto No. 5 is vigorous and clearly audible against the orchestra. Marriner's recordings of Bach's Orchestral Suites Nos. 1-4 are admirable for their meticulous musicianship, close approximation of period practice, and fine digital sound for the time. Most listeners will appreciate these credible and energetic performances, particularly of the Orchestral Suite No. 2 in B minor, which is given a rather robust character and played with as much panache as the more extroverted suites that follow. Naturally, the brass dominate the Suite No. 3 in D major, and the Suite No. 4 in D major, and the ensemble makes these works sound festive and jubilant. But the Air of the Suite No. 3 (also known as the "Air on the G string") impresses with its contrasting introspection, and the Academy plays it with exceptional tenderness.
–Blair Sanderson

Performer:
Academy of St Martin in the Fields
Neville Marriner, conductor

Track List:
CD1:
Brandenburg Concerto No. 1 in F major, BWV 1046
01. 1. Allegro
02. 2. Adagio
03. 3. Allegro
04. 4. Menuet 1 - Trio 1 - Menuet 2 - Polonaise - Menuet 3 - Trio 2 - Menuet 4
Brandenburg Concerto No. 2 in F major, BWV 1047
05. 1. Allegro
06. 2. Andante
07. 3. Allegro assai
Brandenburg Concerto No. 3 in G major, BWV 1048
08. 1. Allegro
09. 2. Adagio
10. 3. Allegro
Brandenburg Concerto No. 4 in G major, BWV 1049
11. 1. Allegro
12. 2. Andante
13. 3. Presto
CD2:
Brandenburg Concerto No. 5 in D major, BWV 1050
01. 1. Allegro
02. 2. Affettuoso
03. 3. Allegro
Brandenburg Concerto No. 6 in B flat major, BWV 1051
04. 1. Allegro
05. 2. Adagio ma non tanto
06. 3. Allegro
Orchestral Suite No. 1 in C major, BWV 1066
07. 1. Overture
08. 2. Courante
09. 3. Gavotte 1 & 2
10. 4. Forlane
11. 5. Menuet 1 & 2
12. 6. Bourrée 1 & 2
13. 7. Passepied 1 & 2
CD3:
Orchestral Suite No. 2 in B minor, BWV 1067
01. 1. Overture
02. 2. Rondeau
03. 3. Sarabande
04. 4. Bourrée 1 & 2
05. 5. Polonaise
06. 6. Menuet
07. 7. Badinerie
Orchestral Suite No. 3 in D major, BWV 1068
08. 1. Overture
09. 2. Air
10. 3. Gavotte 1 & 2
11. 4. Bourrée
12. 5. Gigue
Orchestral Suite No. 4 in D major, BWV 1069
13. 1. Overture
14. 2. Bourrée 1 & 2
15. 3. Gavotte
16. 4. Menuet 1 & 2
17. 5. Réjouissance


Exact Audio Copy V1.5 from 20. February 2020

EAC extraction logfile from 25. March 2021, 23:35

Neville Marriner / Brandenburg Concertos Nos. 1-4

Used drive : ATAPI iHAS124 F Adapter: 1 ID: 0

Read mode : Secure
Utilize accurate stream : Yes
Defeat audio cache : Yes
Make use of C2 pointers : No

Read offset correction : 6
Overread into Lead-In and Lead-Out : No
Fill up missing offset samples with silence : Yes
Delete leading and trailing silent blocks : No
Null samples used in CRC calculations : Yes
Used interface : Native Win32 interface for Win NT & 2000

Used output format : User Defined Encoder
Selected bitrate : 1024 kBit/s
Quality : High
Add ID3 tag : No
Command line compressor : C:\Program Files (x86)\Exact Audio Copy\FLAC\FLAC.EXE
Additional command line options : -6 -V -T "ARTIST=%artist%" -T "TITLE=%title%" -T "ALBUM=%albumtitle%" -T "DATE=%year%" -T "TRACKNUMBER=%tracknr%" -T "GENRE=%genre%" -T "COMMENT=%comment%" -T "BAND=%albuminterpret%" -T "ALBUMARTIST=%albuminterpret%" -T "COMPOSER=%composer%" %haslyrics%–tag-from-file=LYRICS="%lyricsfile%"%haslyrics% -T "DISCNUMBER=%cdnumber%" -T "TOTALDISCS=%totalcds%" -T "TOTALTRACKS=%numtracks%" %hascover%–picture="%coverfile%"%hascover% %source% -o %dest%


TOC of the extracted CD

Track | Start | Length | Start sector | End sector
––––––––––––––––––––––––––––-
1 | 0:00.00 | 4:03.17 | 0 | 18241
2 | 4:03.17 | 4:22.53 | 18242 | 37944
3 | 8:25.70 | 4:31.42 | 37945 | 58311
4 | 12:57.37 | 8:16.10 | 58312 | 95521
5 | 21:13.47 | 5:24.60 | 95522 | 119881
6 | 26:38.32 | 3:57.13 | 119882 | 137669
7 | 30:35.45 | 2:54.67 | 137670 | 150786
8 | 33:30.37 | 6:25.30 | 150787 | 179691
9 | 39:55.67 | 1:28.53 | 179692 | 186344
10 | 41:24.45 | 5:45.20 | 186345 | 212239
11 | 47:09.65 | 7:33.67 | 212240 | 246281
12 | 54:43.57 | 3:47.35 | 246282 | 263341
13 | 58:31.17 | 5:22.68 | 263342 | 287559


Range status and errors

Selected range

Filename C:\EACRip\BACH\Bach - Brandenburg Concertos · Orchestral Suites (Neville Marriner) (2007 [1987])\CD1 - Brandenburg 1-4\Bach - Brandenburg Concertos Nos. 1-4 - Neville Marriner.wav

Peak level 100.0 %
Extraction speed 8.7 X
Range quality 100.0 %
Test CRC 4DE63FAB
Copy CRC 4DE63FAB
Copy OK

No errors occurred


AccurateRip summary

Track 1 accurately ripped (confidence 14) [C4606A74] (AR v2)
Track 2 accurately ripped (confidence 14) [51B7F032] (AR v2)
Track 3 accurately ripped (confidence 14) [84325A8D] (AR v2)
Track 4 accurately ripped (confidence 14) [75AFD2AC] (AR v2)
Track 5 accurately ripped (confidence 14) [B2D978D9] (AR v2)
Track 6 accurately ripped (confidence 14) [F6A677E3] (AR v2)
Track 7 accurately ripped (confidence 14) [925B9AF4] (AR v2)
Track 8 accurately ripped (confidence 14) [30681CD7] (AR v2)
Track 9 accurately ripped (confidence 14) [E1A46C62] (AR v2)
Track 10 accurately ripped (confidence 14) [B45A6641] (AR v2)
Track 11 accurately ripped (confidence 14) [6E30A626] (AR v2)
Track 12 accurately ripped (confidence 14) [F26F5588] (AR v2)
Track 13 accurately ripped (confidence 14) [AE981B06] (AR v2)

All tracks accurately ripped

End of status report

–– CUETools DB Plugin V2.1.6

[CTDB TOCID: pXSIxtFnwfJCBFMcmthxxx.SRhQ-] found
Submit result: pXSIxtFnwfJCBFMcmthxxx.SRhQ- has been confirmed
Track | CTDB Status
1 | (118/119) Accurately ripped
2 | (117/119) Accurately ripped
3 | (118/119) Accurately ripped
4 | (118/119) Accurately ripped
5 | (118/119) Accurately ripped
6 | (118/119) Accurately ripped
7 | (118/119) Accurately ripped
8 | (118/119) Accurately ripped
9 | (118/119) Accurately ripped
10 | (118/119) Accurately ripped
11 | (117/119) Accurately ripped
12 | (118/119) Accurately ripped
13 | (118/119) Accurately ripped


==== Log checksum 7B05A42AD84827A7B545DB3B732F03101DCDD3C137556ACD70AC75625F8D3007 ====


Exact Audio Copy V1.5 from 20. February 2020

EAC extraction logfile from 26. March 2021, 0:02

Neville Marriner / Brandenburg Concertos 5-6 · Orchestral Suite 1

Used drive : ATAPI iHAS124 F Adapter: 1 ID: 0

Read mode : Secure
Utilize accurate stream : Yes
Defeat audio cache : Yes
Make use of C2 pointers : No

Read offset correction : 6
Overread into Lead-In and Lead-Out : No
Fill up missing offset samples with silence : Yes
Delete leading and trailing silent blocks : No
Null samples used in CRC calculations : Yes
Used interface : Native Win32 interface for Win NT & 2000

Used output format : User Defined Encoder
Selected bitrate : 1024 kBit/s
Quality : High
Add ID3 tag : No
Command line compressor : C:\Program Files (x86)\Exact Audio Copy\FLAC\FLAC.EXE
Additional command line options : -6 -V -T "ARTIST=%artist%" -T "TITLE=%title%" -T "ALBUM=%albumtitle%" -T "DATE=%year%" -T "TRACKNUMBER=%tracknr%" -T "GENRE=%genre%" -T "COMMENT=%comment%" -T "BAND=%albuminterpret%" -T "ALBUMARTIST=%albuminterpret%" -T "COMPOSER=%composer%" %haslyrics%–tag-from-file=LYRICS="%lyricsfile%"%haslyrics% -T "DISCNUMBER=%cdnumber%" -T "TOTALDISCS=%totalcds%" -T "TOTALTRACKS=%numtracks%" %hascover%–picture="%coverfile%"%hascover% %source% -o %dest%


TOC of the extracted CD

Track | Start | Length | Start sector | End sector
––––––––––––––––––––––––––––-
1 | 0:00.00 | 10:24.27 | 0 | 46826
2 | 10:24.27 | 5:43.05 | 46827 | 72556
3 | 16:07.32 | 5:18.73 | 72557 | 96479
4 | 21:26.30 | 6:21.45 | 96480 | 125099
5 | 27:48.00 | 6:03.07 | 125100 | 152331
6 | 33:51.07 | 6:09.43 | 152332 | 180049
7 | 40:00.50 | 6:30.45 | 180050 | 209344
8 | 46:31.20 | 2:04.42 | 209345 | 218686
9 | 48:35.62 | 3:57.45 | 218687 | 236506
10 | 52:33.32 | 1:32.40 | 236507 | 243446
11 | 54:05.72 | 3:31.13 | 243447 | 259284
12 | 57:37.10 | 3:18.40 | 259285 | 274174
13 | 60:55.50 | 3:15.57 | 274175 | 288856


Range status and errors

Selected range

Filename C:\EACRip\BACH\Bach - Brandenburg Concertos · Orchestral Suites (Neville Marriner) (2007 [1987])\CD2 - Brandenburg 5-6 · Suite 1\Bach - Brandenburg Concertos 5-6 · Orchestral Suite 1 - Neville Marriner.wav

Peak level 100.0 %
Extraction speed 8.6 X
Range quality 100.0 %
Test CRC 27B2E5E8
Copy CRC 27B2E5E8
Copy OK

No errors occurred


AccurateRip summary

Track 1 accurately ripped (confidence 18) [0396AC30] (AR v2)
Track 2 accurately ripped (confidence 18) [C522B76B] (AR v2)
Track 3 accurately ripped (confidence 18) [9AB9DD90] (AR v2)
Track 4 accurately ripped (confidence 18) [183CE241] (AR v2)
Track 5 accurately ripped (confidence 18) [05FCFEDC] (AR v2)
Track 6 accurately ripped (confidence 18) [2BDBF578] (AR v2)
Track 7 accurately ripped (confidence 18) [76B7057E] (AR v2)
Track 8 accurately ripped (confidence 18) [2378F41A] (AR v2)
Track 9 accurately ripped (confidence 18) [44000A46] (AR v2)
Track 10 accurately ripped (confidence 18) [ABEA5D57] (AR v2)
Track 11 accurately ripped (confidence 18) [38EF39C5] (AR v2)
Track 12 accurately ripped (confidence 18) [B1480269] (AR v2)
Track 13 accurately ripped (confidence 18) [EFC810ED] (AR v2)

All tracks accurately ripped

End of status report

–– CUETools DB Plugin V2.1.6

[CTDB TOCID: 5Ud0Hj6zGm49HW6hO24QN2Vcy40-] found
Submit result: 5Ud0Hj6zGm49HW6hO24QN2Vcy40- has been confirmed
Track | CTDB Status
1 | (86/86) Accurately ripped
2 | (86/86) Accurately ripped
3 | (85/86) Accurately ripped
4 | (84/86) Accurately ripped
5 | (85/86) Accurately ripped
6 | (85/86) Accurately ripped
7 | (64/86) Accurately ripped
8 | (85/86) Accurately ripped
9 | (85/86) Accurately ripped
10 | (86/86) Accurately ripped
11 | (85/86) Accurately ripped
12 | (85/86) Accurately ripped
13 | (84/86) Accurately ripped


==== Log checksum A98CC1A807EEF91DDDD1A54FFC440071CB4A843DC49CA9DF38C662681B68B7D6 ====


Exact Audio Copy V1.5 from 20. February 2020

EAC extraction logfile from 26. March 2021, 1:10

Neville Marriner / Orchestral Suites 2-4

Used drive : ATAPI iHAS124 F Adapter: 1 ID: 0

Read mode : Secure
Utilize accurate stream : Yes
Defeat audio cache : Yes
Make use of C2 pointers : No

Read offset correction : 6
Overread into Lead-In and Lead-Out : No
Fill up missing offset samples with silence : Yes
Delete leading and trailing silent blocks : No
Null samples used in CRC calculations : Yes
Used interface : Native Win32 interface for Win NT & 2000

Used output format : User Defined Encoder
Selected bitrate : 1024 kBit/s
Quality : High
Add ID3 tag : No
Command line compressor : C:\Program Files (x86)\Exact Audio Copy\FLAC\FLAC.EXE
Additional command line options : -6 -V -T "ARTIST=%artist%" -T "TITLE=%title%" -T "ALBUM=%albumtitle%" -T "DATE=%year%" -T "TRACKNUMBER=%tracknr%" -T "GENRE=%genre%" -T "COMMENT=%comment%" -T "BAND=%albuminterpret%" -T "ALBUMARTIST=%albuminterpret%" -T "COMPOSER=%composer%" %haslyrics%–tag-from-file=LYRICS="%lyricsfile%"%haslyrics% -T "DISCNUMBER=%cdnumber%" -T "TOTALDISCS=%totalcds%" -T "TOTALTRACKS=%numtracks%" %hascover%–picture="%coverfile%"%hascover% %source% -o %dest%


TOC of the extracted CD

Track | Start | Length | Start sector | End sector
––––––––––––––––––––––––––––-
1 | 0:00.00 | 7:15.27 | 0 | 32651
2 | 7:15.27 | 1:54.30 | 32652 | 41231
3 | 9:09.57 | 3:18.10 | 41232 | 56091
4 | 12:27.67 | 2:19.53 | 56092 | 66569
5 | 14:47.45 | 3:32.02 | 66570 | 82471
6 | 18:19.47 | 1:11.70 | 82472 | 87866
7 | 19:31.42 | 1:34.10 | 87867 | 94926
8 | 21:05.52 | 7:53.48 | 94927 | 130449
9 | 28:59.25 | 4:57.65 | 130450 | 152789
10 | 33:57.15 | 4:19.40 | 152790 | 172254
11 | 38:16.55 | 1:20.22 | 172255 | 178276
12 | 39:37.02 | 3:03.58 | 178277 | 192059
13 | 42:40.60 | 8:06.70 | 192060 | 228579
14 | 50:47.55 | 3:26.55 | 228580 | 244084
15 | 54:14.35 | 1:53.17 | 244085 | 252576
16 | 56:07.52 | 4:19.68 | 252577 | 272069
17 | 60:27.45 | 3:01.65 | 272070 | 285709


Range status and errors

Selected range

Filename C:\EACRip\BACH\Bach - Brandenburg Concertos · Orchestral Suites (Neville Marriner) (2007 [1987])\CD3 - Suites 2-4\Bach - Orchestral Suites Nos. 2-4 - Neville Marriner.wav

Peak level 99.6 %
Extraction speed 8.4 X
Range quality 100.0 %
Test CRC 693F1916
Copy CRC 693F1916
Copy OK

No errors occurred


AccurateRip summary

Track 1 accurately ripped (confidence 6) [698A2438] (AR v2)
Track 2 accurately ripped (confidence 6) [06D2B51F] (AR v2)
Track 3 accurately ripped (confidence 6) [435214A1] (AR v2)
Track 4 accurately ripped (confidence 6) [D39FD155] (AR v2)
Track 5 accurately ripped (confidence 6) [D812349A] (AR v2)
Track 6 accurately ripped (confidence 6) [B6AF595E] (AR v2)
Track 7 accurately ripped (confidence 6) [F08E092E] (AR v2)
Track 8 accurately ripped (confidence 6) [8C5B2D3E] (AR v2)
Track 9 accurately ripped (confidence 6) [856FD5F8] (AR v2)
Track 10 accurately ripped (confidence 6) [EC84C77F] (AR v2)
Track 11 accurately ripped (confidence 6) [7326F278] (AR v2)
Track 12 accurately ripped (confidence 6) [ABACF904] (AR v2)
Track 13 accurately ripped (confidence 6) [39AC14CB] (AR v2)
Track 14 accurately ripped (confidence 6) [9E7FCFFE] (AR v2)
Track 15 accurately ripped (confidence 6) [81868BE2] (AR v2)
Track 16 accurately ripped (confidence 6) [F6C31CD4] (AR v2)
Track 17 accurately ripped (confidence 6) [C5988265] (AR v2)

All tracks accurately ripped

End of status report

–– CUETools DB Plugin V2.1.6

[CTDB TOCID: e5A0s79KCG9lNk8jA._SQraYo2o-] found
Submit result: e5A0s79KCG9lNk8jA._SQraYo2o- has been confirmed
Track | CTDB Status
1 | (39/46) Accurately ripped
2 | (39/46) Accurately ripped
3 | (39/46) Accurately ripped
4 | (39/46) Accurately ripped
5 | (39/46) Accurately ripped
6 | (39/46) Accurately ripped
7 | (39/46) Accurately ripped
8 | (39/46) Accurately ripped
9 | (39/46) Accurately ripped
10 | (38/46) Accurately ripped
11 | (39/46) Accurately ripped
12 | (39/46) Accurately ripped
13 | (39/46) Accurately ripped
14 | (39/46) Accurately ripped
15 | (39/46) Accurately ripped
16 | (39/46) Accurately ripped
17 | (38/46) Accurately ripped


==== Log checksum 5886F38D305432F177081263FA3D2E9BB96669FA961669D796B5F58DDACE0F43 ====

Neville Marriner, Academy of St Martin in the Fields - Johann Sebastian Bach: Brandenburg Concertos, Orchestral Suites (2007)

Thanks to the original releaser