Tags
Language
Tags

Neville Marriner, The Academy of St. Martin in the Fields - Corelli: Concerti Grossi, Op.6 (1995)

Posted By:
Neville Marriner, The Academy of St. Martin in the Fields - Corelli: Concerti Grossi, Op.6 (1995)

Neville Marriner, The Academy of St. Martin in the Fields - Corelli: Concerti Grossi, Op.6 (1995)
EAC | FLAC | Image (Cue & Log) ~ 612 Mb | Total time: 126:42 | Scans included
Classical | Label: DECCA | # 443 862-2 | Recorded: 1974

The re-master of a 1974 Decca Record recording is excellent in execution and style. Neveille Marriner and St. Martin-in-the-Fields perform in their typical excellent manner.


Performer:
The Academy of St. Martin in the Fields
Sir Neville Marriner, conductor

Track list:
CD1:
Concerto grosso in D major, No.1
01. I. Largo - Allegro
02. II. Largo - Allegro
03. III. Largo - Allegro
04. IV. Allegro
Concerto grosso in F major, No.2
05. I. Vivace - Allegro - Adagio - Vivace - Allegro - Largo andante
06. II. Allegro
07. III. Grave - Andante Largo - allegro
Concerto grosso in C minor, No.3
08. I. Largo - Allegro
09. II. Grave - Vivace
10. III. Allegro
Concerto grosso in D major, No.4
11. I. Adagio - Allegro
12. II. Adagio - Vivace
13. III. Allegro - Allegro
Concerto grosso in B flat major, No.5
14. I. Adagio - Allegro - Adagio [
15. II. Allegro
16. III. Largo - Allegro
Concerto grosso in F major, No.6
17. I. Adagio - Allegro
18. II. Largo - Vivace
19. III. Allegro
CD2:
Concerto grosso in D major, No.7
01. I. Vivace - Allegro - Adagio
02. II. Allegro
03. III. Andante Largo - Allegro
04. IV. Vivace
Concerto grosso in G minor, No.8 "fatto per la notte di Natale"
05. I. Vivace - Grave - Adagio
06. II. Adagio - Allegro - Adagio
07. III. Vivace
08. IV. Allegro
9. V. Largo (Pastorale ad libitum)
Concerto grosso in F major, No.9
10. I. Preludio :Largo
11. II. Allemanda: Allegro
12. III. Corrente: Vivace
13. IV. Gavotta: Allegro
14 V. Adagio - Minuetto: Vivace
Concerto grosso in C major, No.10
15 I. Preludio: Largo
16. II. Allemanda: Allegro
17. III. Adagio – Corrente: Vivace
18. IV. Allegro
19. V. Minuetto: Vivace
Concerto grosso in B flat major, No.11
20. I. Preludio: Andante largo
21. II. Allemanda: Allegro
22. III. Adagio - Andante largo – Sarabanda: Largo
23. IV. Giga: Vivace
Concerto grosso in F major, No.12
24. I. Preludio: Adagio
25. II. Allegro
26. III. Adagio – Sarabanda: Vivace
27. IV. Giga: Allegro


Exact Audio Copy V1.5 from 20. February 2020

EAC extraction logfile from 19. November 2020, 14:46

Academy of St Martin in the Fields, Sir Neville Marriner / Corelli - 12 Concerti Grossi Op.6 CD1

Used drive : PIONEER DVD-RW DVR-218L Adapter: 1 ID: 0

Read mode : Secure
Utilize accurate stream : Yes
Defeat audio cache : Yes
Make use of C2 pointers : No

Read offset correction : 6
Overread into Lead-In and Lead-Out : No
Fill up missing offset samples with silence : Yes
Delete leading and trailing silent blocks : No
Null samples used in CRC calculations : Yes
Used interface : Native Win32 interface for Win NT & 2000

Used output format : User Defined Encoder
Selected bitrate : 128 kBit/s
Quality : High
Add ID3 tag : No
Command line compressor : C:\Program Files\Exact Audio Copy\Flac\flac.exe
Additional command line options : -V -8 -T "Date=%year%" -T "Genre=%genre%" %source%


TOC of the extracted CD

Track | Start | Length | Start sector | End sector
––––––––––––––––––––––––––––-
1 | 0:00.33 | 2:28.70 | 33 | 11202
2 | 2:29.28 | 2:21.17 | 11203 | 21794
3 | 4:50.45 | 5:06.18 | 21795 | 44762
4 | 9:56.63 | 2:09.20 | 44763 | 54457
5 | 12:06.08 | 4:18.32 | 54458 | 73839
6 | 16:24.40 | 1:42.38 | 73840 | 81527
7 | 18:07.03 | 4:01.42 | 81528 | 99644
8 | 22:08.45 | 3:56.48 | 99645 | 117392
9 | 26:05.18 | 3:06.17 | 117393 | 131359
10 | 29:11.35 | 2:42.23 | 131360 | 143532
11 | 31:53.58 | 4:00.00 | 143533 | 161532
12 | 35:53.58 | 3:10.17 | 161533 | 175799
13 | 39:04.00 | 3:32.28 | 175800 | 191727
14 | 42:36.28 | 4:48.60 | 191728 | 213387
15 | 47:25.13 | 2:03.62 | 213388 | 222674
16 | 49:29.00 | 2:42.13 | 222675 | 234837
17 | 52:11.13 | 3:29.60 | 234838 | 250572
18 | 55:40.73 | 5:47.57 | 250573 | 276654
19 | 61:28.55 | 2:07.43 | 276655 | 286222


Range status and errors

Selected range

Filename C:\ArlegZ\Corelli - 12 Concerti Grossi Op.6 - Neville Marriner CD1.wav

Peak level 79.9 %
Extraction speed 1.9 X
Range quality 99.9 %
Test CRC 6AE3B65A
Copy CRC 6AE3B65A
Copy OK

No errors occurred


AccurateRip summary

Track 1 accurately ripped (confidence 2) [DAC89DD4] (AR v2)
Track 2 accurately ripped (confidence 2) [5919B7B3] (AR v2)
Track 3 accurately ripped (confidence 2) [DBCFA8BB] (AR v2)
Track 4 accurately ripped (confidence 2) [029203FC] (AR v2)
Track 5 accurately ripped (confidence 2) [AF5FDAE0] (AR v2)
Track 6 accurately ripped (confidence 2) [E391985E] (AR v2)
Track 7 accurately ripped (confidence 2) [90E24655] (AR v2)
Track 8 accurately ripped (confidence 2) [390C28AB] (AR v2)
Track 9 accurately ripped (confidence 2) [D995DD38] (AR v2)
Track 10 accurately ripped (confidence 2) [F0C6BBBB] (AR v2)
Track 11 accurately ripped (confidence 2) [CEC49980] (AR v2)
Track 12 accurately ripped (confidence 2) [27F5E240] (AR v2)
Track 13 accurately ripped (confidence 2) [4E2F9AFD] (AR v2)
Track 14 accurately ripped (confidence 2) [6A0891BE] (AR v2)
Track 15 accurately ripped (confidence 2) [743E7EE9] (AR v2)
Track 16 accurately ripped (confidence 2) [45520AC1] (AR v2)
Track 17 accurately ripped (confidence 2) [93A11FB1] (AR v2)
Track 18 accurately ripped (confidence 2) [74483DBE] (AR v2)
Track 19 accurately ripped (confidence 4) [2AEDD750] (AR v1)

All tracks accurately ripped

End of status report

–– CUETools DB Plugin V2.1.6

[CTDB TOCID: hk2324_ITfeV70h_XVkeTO_865M-] found
Submit result: hk2324_ITfeV70h_XVkeTO_865M- has been confirmed
Track | CTDB Status
1 | ( 86/102) Accurately ripped
2 | ( 85/102) Accurately ripped
3 | ( 84/102) Accurately ripped
4 | ( 85/102) Accurately ripped
5 | ( 84/102) Accurately ripped
6 | ( 84/102) Accurately ripped
7 | ( 84/102) Accurately ripped
8 | ( 85/102) Accurately ripped
9 | ( 85/102) Accurately ripped
10 | ( 84/102) Accurately ripped
11 | ( 85/102) Accurately ripped
12 | ( 83/102) Accurately ripped
13 | ( 83/102) Accurately ripped
14 | ( 85/102) Accurately ripped
15 | ( 85/102) Accurately ripped
16 | ( 84/102) Accurately ripped
17 | ( 84/102) Accurately ripped
18 | ( 83/102) Accurately ripped
19 | ( 83/102) Accurately ripped


==== Log checksum 0E9765801D9A19131E6D196A78463060791C506B099137ECA72DD3DA1975F5C1 ====


Exact Audio Copy V1.5 from 20. February 2020

EAC extraction logfile from 19. November 2020, 15:55

Academy of St Martin in the Fields, Sir Neville Marriner / Corelli - 12 Concerti Grossi Op.6 (II)

Used drive : PIONEER DVD-RW DVR-218L Adapter: 1 ID: 0

Read mode : Secure
Utilize accurate stream : Yes
Defeat audio cache : Yes
Make use of C2 pointers : No

Read offset correction : 6
Overread into Lead-In and Lead-Out : No
Fill up missing offset samples with silence : Yes
Delete leading and trailing silent blocks : No
Null samples used in CRC calculations : Yes
Used interface : Native Win32 interface for Win NT & 2000

Used output format : User Defined Encoder
Selected bitrate : 128 kBit/s
Quality : High
Add ID3 tag : No
Command line compressor : C:\Program Files\Exact Audio Copy\Flac\flac.exe
Additional command line options : -V -8 -T "Date=%year%" -T "Genre=%genre%" %source%


TOC of the extracted CD

Track | Start | Length | Start sector | End sector
––––––––––––––––––––––––––––-
1 | 0:00.32 | 2:27.18 | 32 | 11074
2 | 2:27.50 | 2:04.65 | 11075 | 20439
3 | 4:32.40 | 3:36.50 | 20440 | 36689
4 | 8:09.15 | 1:29.15 | 36690 | 43379
5 | 9:38.30 | 3:37.37 | 43380 | 59691
6 | 13:15.67 | 3:26.23 | 59692 | 75164
7 | 16:42.15 | 1:19.25 | 75165 | 81114
8 | 18:01.40 | 2:26.70 | 81115 | 92134
9 | 20:28.35 | 2:30.20 | 92135 | 103404
10 | 22:58.55 | 0:59.15 | 103405 | 107844
11 | 23:57.70 | 2:38.27 | 107845 | 119721
12 | 26:36.22 | 1:25.53 | 119722 | 126149
13 | 28:02.00 | 0:49.00 | 126150 | 129824
14 | 28:51.00 | 2:18.45 | 129825 | 140219
15 | 31:09.45 | 1:57.25 | 140220 | 149019
16 | 33:06.70 | 2:27.37 | 149020 | 160081
17 | 35:34.32 | 3:25.58 | 160082 | 175514
18 | 39:00.15 | 2:24.62 | 175515 | 186376
19 | 41:25.02 | 2:00.50 | 186377 | 195426
20 | 43:25.52 | 1:55.10 | 195427 | 204061
21 | 45:20.62 | 2:31.38 | 204062 | 215424
22 | 47:52.25 | 3:01.42 | 215425 | 229041
23 | 50:53.67 | 1:21.60 | 229042 | 235176
24 | 52:15.52 | 2:33.15 | 235177 | 246666
25 | 54:48.67 | 2:18.70 | 246667 | 257086
26 | 57:07.62 | 2:42.70 | 257087 | 269306
27 | 59:50.57 | 3:15.20 | 269307 | 283951


Range status and errors

Selected range

Filename C:\ArlegZ\Corelli - 12 Concerti Grossi Op.6 - Neville Marriner CD2.wav

Peak level 77.7 %
Extraction speed 1.9 X
Range quality 100.0 %
Test CRC CE0B7E7C
Copy CRC CE0B7E7C
Copy OK

No errors occurred


AccurateRip summary

Track 1 accurately ripped (confidence 2) [69B55CB1] (AR v1)
Track 2 accurately ripped (confidence 2) [028F58E6] (AR v1)
Track 3 accurately ripped (confidence 2) [65707436] (AR v1)
Track 4 accurately ripped (confidence 2) [AB352AC3] (AR v1)
Track 5 accurately ripped (confidence 2) [C664D14F] (AR v1)
Track 6 accurately ripped (confidence 2) [5C4CBEE1] (AR v1)
Track 7 accurately ripped (confidence 2) [AD420FA0] (AR v1)
Track 8 accurately ripped (confidence 2) [BC5B7AA6] (AR v1)
Track 9 accurately ripped (confidence 2) [5E16C87D] (AR v1)
Track 10 accurately ripped (confidence 2) [1EB0AEE0] (AR v1)
Track 11 accurately ripped (confidence 2) [DE746985] (AR v1)
Track 12 accurately ripped (confidence 2) [F2599628] (AR v1)
Track 13 accurately ripped (confidence 2) [60F173AF] (AR v1)
Track 14 accurately ripped (confidence 2) [366324FE] (AR v1)
Track 15 accurately ripped (confidence 2) [1AC63644] (AR v1)
Track 16 accurately ripped (confidence 2) [34D9BF3D] (AR v1)
Track 17 accurately ripped (confidence 2) [1CB4FAF5] (AR v1)
Track 18 accurately ripped (confidence 2) [B979297A] (AR v1)
Track 19 accurately ripped (confidence 2) [4C951BA4] (AR v1)
Track 20 accurately ripped (confidence 2) [E1469A64] (AR v1)
Track 21 accurately ripped (confidence 2) [94638DA6] (AR v1)
Track 22 accurately ripped (confidence 2) [934BC16A] (AR v1)
Track 23 accurately ripped (confidence 2) [BDB34D69] (AR v1)
Track 24 accurately ripped (confidence 2) [78887402] (AR v1)
Track 25 accurately ripped (confidence 2) [3DF6C5A9] (AR v1)
Track 26 accurately ripped (confidence 2) [A791A413] (AR v1)
Track 27 accurately ripped (confidence 2) [A21599B6] (AR v1)

All tracks accurately ripped

End of status report

–– CUETools DB Plugin V2.1.6

[CTDB TOCID: 9APmeQEP5TXIWvAi1jlyFxSJLXM-] found
Submit result: 9APmeQEP5TXIWvAi1jlyFxSJLXM- has been confirmed
Track | CTDB Status
1 | (64/97) Accurately ripped
2 | (63/97) Accurately ripped
3 | (63/97) Accurately ripped
4 | (63/97) Accurately ripped
5 | (63/97) Accurately ripped
6 | (63/97) Accurately ripped
7 | (63/97) Accurately ripped
8 | (63/97) Accurately ripped
9 | (63/97) Accurately ripped
10 | (63/97) Accurately ripped
11 | (63/97) Accurately ripped
12 | (63/97) Accurately ripped
13 | (63/97) Accurately ripped
14 | (63/97) Accurately ripped
15 | (63/97) Accurately ripped
16 | (63/97) Accurately ripped
17 | (63/97) Accurately ripped
18 | (63/97) Accurately ripped
19 | (63/97) Accurately ripped
20 | (63/97) Accurately ripped
21 | (62/97) Accurately ripped
22 | (62/97) Accurately ripped
23 | (62/97) Accurately ripped
24 | (62/97) Accurately ripped
25 | (62/97) Accurately ripped
26 | (62/97) Accurately ripped
27 | (62/97) Accurately ripped


==== Log checksum AD39A5FDD7C5FCE6B898DF7A1CFF55F4B1FB23017D060DED9003A5303577FC85 ====

Neville Marriner, The Academy of St. Martin in the Fields - Corelli: Concerti Grossi, Op.6 (1995)