Subcategories

New Trolls - N.T. Atomic System (1973)

Posted By: uff
New Trolls - N.T. Atomic System (1973)

New Trolls - N.T. Atomic System (1973)
Rock | 1cd | EAC Rip | Flac + Cue + Log | covers
Arcangelo ARC-7023 | rem: 2003 | 300Mb

N.T. Atomic System released their first album in 1973, a splendid album very rich in the vein of classic Ital-Prog culture with Vittorio De Scalzi himself playing flute and keyboards along with guitar… The music on this album is fully of beautiful melodies and dramatic instrumentation. On this album they have added the female vocals of Anna e Giulietta whose voice sounds great along with De Scalzi's. This album contains the bands rendition of Mussorgsky's "A night on Bare Mountain" (Una notte sul Monte Calvo),… a short but great instrumental track, sounding a bit evil and creepy. One of the standout aspects of this album for me is the great keyboard playing of Renato Rosset (piano, Hammond organ, moog, mellotron and electric piano). This album has it all.lots of sound dynamics, the special 70's Italian passion with great theme dynamics and great instrumentation. My personal favourite is track 6 "Quando L'Erba Vestiva La Terra" which carries a strong PROCOL HARUM feel with dense yet lush symphonic organ and keyboards as well as a beautiful melody. The last song "Butterfly" is surprisingly sung in English and sounds like Ian Anderson with a heavy Moody Blues feel to this last track. For me this is definitely not only the best New Trolls album but also would have to rank IMHO as one of the very best albums from the 70's Ital-Prog scene. An essential Ital-prog album deserving to be in your collection ! ~Progarchives

Track listing
01. La Nuova Predica Di Padre O'Brien (6:44)
02. Ho Visto Poi (7:32)
03. Tornare A Credere (8:36)
04. Una Notte Sul Monte Calvo (bonus track) (3:31)
05. Ibernazione (5:49)
06. Quando L'Erba Vestiva La Terra (7:16)
07. Butterfly (4:39)
~ (44:08)

Personnel
- Vittorio De Scalzi / guitar, flute, Arp synth, spinetta, vocals
- Giorgio D'Adamo / bass
- Renato Rossert / piano, Hammond organ, Moog, Mellotron, electric piano
- Giorgio Baiocco / tenor sax, flute, Eminent string emsemble
- Tullio D'Episcopo / drums - Ramasandiran Somusundaran / percussions
- Anna & Giulietta / chorus


Exact Audio Copy V1.0 beta 1 from 15. November 2010

EAC extraction logfile from 29. January 2011, 23:33

New Trolls / N.T. Atomic System

Used drive : Optiarc DVD RW AD-7240S Adapter: 2 ID: 1

Read mode : Secure
Utilize accurate stream : Yes
Defeat audio cache : Yes
Make use of C2 pointers : No

Read offset correction : 48
Overread into Lead-In and Lead-Out : No
Fill up missing offset samples with silence : Yes
Delete leading and trailing silent blocks : No
Null samples used in CRC calculations : Yes
Used interface : Native Win32 interface for Win NT & 2000
Gap handling : Appended to previous track

Used output format : User Defined Encoder
Selected bitrate : 896 kBit/s
Quality : High
Add ID3 tag : No
Command line compressor : C:\Program Files (x86)\Exact Audio Copy New\FLAC\FLAC.EXE
Additional command line options : -8 -V -T "ARTIST=%a" -T "TITLE=%t" -T "ALBUM=%g" -T "DATE=%y" -T "TRACKNUMBER=%n" -T "GENRE=%m" -T "COMMENT=EAC FLAC -8" %s


TOC of the extracted CD

Track | Start | Length | Start sector | End sector
––––––––––––––––––––––––––––-
1 | 0:00.00 | 6:44.17 | 0 | 30316
2 | 6:44.17 | 7:31.65 | 30317 | 64206
3 | 14:16.07 | 8:36.28 | 64207 | 102934
4 | 22:52.35 | 3:30.62 | 102935 | 118746
5 | 26:23.22 | 5:49.23 | 118747 | 144944
6 | 32:12.45 | 7:16.07 | 144945 | 177651
7 | 39:28.52 | 4:39.08 | 177652 | 198584


Track 1

Filename C:\Lossless\New Trolls - 1973 - N.T. Atomic System [flac]\01 - La Nuova Predica Di Padre O'Brien.wav

Pre-gap length 0:00:02.00

Peak level 97.3 %
Extraction speed 2.5 X
Track quality 100.0 %
Test CRC E2660862
Copy CRC E2660862
Accurately ripped (confidence 2) [BF0B4ED3]
Copy OK

Track 2

Filename C:\Lossless\New Trolls - 1973 - N.T. Atomic System [flac]\02 - Ho Visto Poi.wav

Peak level 90.5 %
Extraction speed 3.0 X
Track quality 100.0 %
Test CRC 70A9E470
Copy CRC 70A9E470
Accurately ripped (confidence 2) [09BEE7AB]
Copy OK

Track 3

Filename C:\Lossless\New Trolls - 1973 - N.T. Atomic System [flac]\03 - Tornare A Credere.wav

Peak level 91.5 %
Extraction speed 3.2 X
Track quality 99.9 %
Test CRC DB00D6F6
Copy CRC DB00D6F6
Accurately ripped (confidence 2) [1D7037AB]
Copy OK

Track 4

Filename C:\Lossless\New Trolls - 1973 - N.T. Atomic System [flac]\04 - Una Notte Sul Monte Calvo (bonus track).wav

Peak level 98.0 %
Extraction speed 2.9 X
Track quality 99.9 %
Test CRC 60590656
Copy CRC 60590656
Accurately ripped (confidence 2) [7B4EB8BB]
Copy OK

Track 5

Filename C:\Lossless\New Trolls - 1973 - N.T. Atomic System [flac]\05 - Ibernazione.wav

Peak level 74.0 %
Extraction speed 3.5 X
Track quality 99.9 %
Test CRC A5C32BE7
Copy CRC A5C32BE7
Accurately ripped (confidence 2) [B73D519A]
Copy OK

Track 6

Filename C:\Lossless\New Trolls - 1973 - N.T. Atomic System [flac]\06 - Quando L'Erba Vestiva La Terra.wav

Peak level 98.8 %
Extraction speed 4.2 X
Track quality 100.0 %
Test CRC 47DF7244
Copy CRC 47DF7244
Accurately ripped (confidence 2) [C7A49DC5]
Copy OK

Track 7

Filename C:\Lossless\New Trolls - 1973 - N.T. Atomic System [flac]\07 - Butterfly.wav

Peak level 62.3 %
Extraction speed 4.2 X
Track quality 100.0 %
Test CRC 4033D0E2
Copy CRC 4033D0E2
Track not present in AccurateRip database
Copy OK


6 track(s) accurately ripped
1 track(s) not present in the AccurateRip database

Some tracks could not be verified as accurate

No errors occurred

End of status report

==== Log checksum C427376A25E49005B167650DAF8EBCE624C31DAE89243297BFB5E63F2771A160 ====



[CUETools log; Date: 2015.08.06. 23:46:44; Version: 2.1.5]
[CTDB TOCID: cZ7Z8gHDcFr_yMYcBiT8dGNOMCs-] found.
Track | CTDB Status
1 | (1/1) Accurately ripped
2 | (1/1) Accurately ripped
3 | (1/1) Accurately ripped
4 | (1/1) Accurately ripped
5 | (1/1) Accurately ripped
6 | (1/1) Accurately ripped
7 | (1/1) Accurately ripped
[AccurateRip ID: 000cc70c-004bb185-600a5707] found.
Track [ CRC | V2 ] Status
01 [bf0b4ed3|7ed9525e] (3+2/5) Accurately ripped
02 [09bee7ab|19a567c8] (3+2/5) Accurately ripped
03 [1d7037ab|5d9dd6f5] (3+2/5) Accurately ripped
04 [7b4eb8bb|40371367] (3+2/5) Accurately ripped
05 [b73d519a|330cf0dd] (3+2/5) Accurately ripped
06 [c7a49dc5|a613c0ee] (3+2/5) Accurately ripped
07 [0a0e0bf9|4a8c3b65] (2+2/4) Accurately ripped

Track Peak [ CRC32 ] [W/O NULL] [ LOG ]
– 98,8 [BF0E80EA] [8E094686]
01 97,3 [E2660862] [D82E8009] CRC32
02 90,5 [70A9E470] [7799DE64] CRC32
03 91,5 [DB00D6F6] [6FEC01CC] CRC32
04 98,0 [60590656] [24F187A2] CRC32
05 74,0 [A5C32BE7] [C4D3AC50] CRC32
06 98,8 [47DF7244] [DF2429F5] CRC32
07 62,3 [4033D0E2] [C23D04DF] CRC32


Thx to abrelapuertaninyo