Tags
Language
Tags

New York Jazz Quartet - Surge (1977) [Reissue 1992]

Posted By: gribovar
New York Jazz Quartet - Surge (1977) [Reissue 1992]

New York Jazz Quartet - Surge (1977) [Reissue 1992]
EAC Rip | FLAC (tracks+.cue+log) - 257 MB | MP3 CBR 320 kbps (LAME 3.93) - 97 MB | Covers - 23 MB
Genre: Jazz, Post-Bop | RAR 3% Rec. | Label: Enja Records (ENJA CD 2094-2)

During its ten years of existence between 1972 and 1982, the New York Jazz Quartet went through a number of personnel changes, though the one constant was founder Roland Hanna at the piano. This 1977 studio session includes Frank Wess, George Mraz, and a somewhat obscure drummer, Richard Pratt, who evidently didn't record many jazz sessions at all during his rather brief musical career. Like many of the group's efforts, this album sticks exclusively to originals by the band. Wess' flute is the focus of the hard-driving title track, and another of his compositions, the gorgeous ballad "Placitude," features the veteran playing alto flute in alternate choruses with Hanna. The leader contributed the funky "Big Band Henry" and the brisk post-bop "Tee Piece," the latter featuring Wess' hard-blowing tenor sax. The individual pieces written by Mraz and Pratt also measure up to those of the front line.
Tracklist:
01. Surge
02. Placitude
03. Big Bad Henry
04. 87th Street
05. What, Does It Matter?
06. Tee Piece

Total time: 41:29

Exact Audio Copy V1.0 beta 2 from 29. April 2011

EAC extraction logfile from 15. August 2011, 20:17

New York Jazz Quartet / Surge

Used drive : HL-DT-STDVD-RAM GSA-H55N Adapter: 0 ID: 2

Read mode : Secure
Utilize accurate stream : Yes
Defeat audio cache : Yes
Make use of C2 pointers : No

Read offset correction : 102
Overread into Lead-In and Lead-Out : Yes
Fill up missing offset samples with silence : Yes
Delete leading and trailing silent blocks : No
Null samples used in CRC calculations : Yes
Used interface : Installed external ASPI interface
Gap handling : Appended to previous track

Used output format : User Defined Encoder
Selected bitrate : 128 kBit/s
Quality : High
Add ID3 tag : No
Command line compressor : G:\Program Files\Exact Audio Copy\Encoder\flac.exe
Additional command line options : -V -8 -T "Genre=%genre%" -T "Artist=%artist%" -T "Title=%title%" -T "Album=%albumtitle%" -T "Date=%year%" -T "Tracknumber=%tracknr%" -T "Comment=%comment%" %source%


TOC of the extracted CD

Track | Start | Length | Start sector | End sector
––––––––––––––––––––––––––––-
1 | 0:00.00 | 5:54.12 | 0 | 26561
2 | 5:54.12 | 7:11.38 | 26562 | 58924
3 | 13:05.50 | 9:57.12 | 58925 | 103711
4 | 23:02.62 | 6:19.50 | 103712 | 132186
5 | 29:22.37 | 4:53.38 | 132187 | 154199
6 | 34:16.00 | 7:13.37 | 154200 | 186711


Track 1

Filename F:\WAV\01 - Surge.wav

Pre-gap length 0:00:02.00

Peak level 93.9 %
Extraction speed 4.9 X
Track quality 100.0 %
Test CRC A0EBD829
Copy CRC A0EBD829
Track not present in AccurateRip database
Copy OK

Track 2

Filename F:\WAV\02 - Placitude.wav

Pre-gap length 0:00:03.12

Peak level 90.3 %
Extraction speed 5.7 X
Track quality 100.0 %
Test CRC 416BF301
Copy CRC 416BF301
Track not present in AccurateRip database
Copy OK

Track 3

Filename F:\WAV\03 - Big Bad Henry.wav

Pre-gap length 0:00:03.13

Peak level 96.7 %
Extraction speed 6.6 X
Track quality 100.0 %
Test CRC 1A6B82D7
Copy CRC 1A6B82D7
Track not present in AccurateRip database
Copy OK

Track 4

Filename F:\WAV\04 - 87th Street.wav

Pre-gap length 0:00:03.12

Peak level 94.0 %
Extraction speed 6.9 X
Track quality 100.0 %
Test CRC 2F1D5C0C
Copy CRC 2F1D5C0C
Track not present in AccurateRip database
Copy OK

Track 5

Filename F:\WAV\05 - What, Does It Matter.wav

Pre-gap length 0:00:03.12

Peak level 92.7 %
Extraction speed 6.9 X
Track quality 100.0 %
Test CRC 00A9CA97
Copy CRC 00A9CA97
Track not present in AccurateRip database
Copy OK

Track 6

Filename F:\WAV\06 - Tee Piece.wav

Pre-gap length 0:00:03.13

Peak level 92.8 %
Extraction speed 4.9 X
Track quality 100.0 %
Test CRC 5D981DFD
Copy CRC 5D981DFD
Track not present in AccurateRip database
Copy OK


None of the tracks are present in the AccurateRip database

No errors occurred

End of status report

==== Log checksum DE08A6EAC7E4B0204D42460185F2D01529F4C203761BC1A7C4E03A53CDF31D89 ====

[CUETools log; Date: 31.07.2021 15:04:48; Version: 2.1.4]
[CTDB TOCID: i.DYyMnq53adQDaVeefBWN7ZgiI-] found.
Track | CTDB Status
1 | (6/6) Accurately ripped
2 | (6/6) Accurately ripped
3 | (6/6) Accurately ripped
4 | (6/6) Accurately ripped
5 | (6/6) Accurately ripped
6 | (6/6) Accurately ripped
[AccurateRip ID: 000a1b1a-0035fbcb-5709b906] found.
Track [ CRC | V2 ] Status
01 [8b05f64e|8b7fccc8] (0+2/6) Accurately ripped
02 [9b219507|958e3dbe] (0+2/6) Accurately ripped
03 [2ba48037|2cf4193c] (0+2/4) Accurately ripped
04 [4e885dc1|286d31c2] (0+2/4) Accurately ripped
05 [319b506a|0fec6799] (0+2/4) Accurately ripped
06 [28f96a15|1b2d0d3d] (0+2/4) Accurately ripped
Offsetted by 18:
01 [d3969ad6] (0/6) No match (V2 was not tested)
02 [6fa75069] (0/6) No match (V2 was not tested)
03 [535dd889] (0/4) No match (V2 was not tested)
04 [635743c1] (0/4) No match (V2 was not tested)
05 [c5d5a38c] (0/4) No match (V2 was not tested)
06 [ed73b1a5] (0/4) No match (V2 was not tested)
Offsetted by 682:
01 [486e5036] (2/6) Accurately ripped
02 [0f5e50c1] (2/6) Accurately ripped
03 [292f7621] (0/4) No match (V2 was not tested)
04 [0d994bc1] (0/4) No match (V2 was not tested)
05 [b00448e4] (0/4) No match (V2 was not tested)
06 [cb843a65] (0/4) No match (V2 was not tested)

Track Peak [ CRC32 ] [W/O NULL] [ LOG ]
– 96,7 [008C38A1] [29B89FC7]
01 93,9 [A0EBD829] [26E3604A] CRC32
02 90,3 [416BF301] [F5765730] CRC32
03 96,7 [1A6B82D7] [C1970167] CRC32
04 94,0 [2F1D5C0C] [75D4233B] CRC32
05 92,7 [00A9CA97] [B820E281] CRC32
06 92,8 [5D981DFD] [5892895D] CRC32

Thanks to simple.i