Tags
Language
Tags
April 2024
Su Mo Tu We Th Fr Sa
31 1 2 3 4 5 6
7 8 9 10 11 12 13
14 15 16 17 18 19 20
21 22 23 24 25 26 27
28 29 30 1 2 3 4

Nico van der Meel, Concerto Amsterdam, La Furia - Bach: Johannes Passion [The 1725 Version] (2012)

Posted By: ArlegZ
Nico van der Meel, Concerto Amsterdam, La Furia - Bach: Johannes Passion [The 1725 Version] (2012)

Nico van der Meel, Concerto Amsterdam, La Furia - Bach: Johannes Passion [The 1725 Version] (2012)
EAC | FLAC | Image (Cue & Log) ~ 474 Mb | Total time: 110:07 | Scans included
Classical | Label: Quintone | Recorded: 2007

This 2007 recording of J.S. Bach's Johannes Passion, featuring Concerto d'Amsterdam and the Flemish vocal ensemble La Furia, uses the 1725 version of the piece, which substitutes some movements (most noticeably the opening chorus) more staid than those of the 1724 version. That decision to go for restraint rather than passion carries over to the performance style, as well, which tends to be reserved and tastefully correct rather than stirringly dramatic. It couldn't be characterized as flaccid because there is certainly a high energy level when appropriate, but even in these sections the performers seem more concerned with brisk precision than with stirring the blood. The crisp articulation of the contrapuntal sections tends to sound more academically exact than passionate. The sections that are most rhythmically free, such as the recitatives, are those where the urgency of the narrative takes flight. The anguished drama is frequently more evident in the instrumental playing than in the singing, as in Wilma van der Wardt's expressive viola da gamba obbligato in "Himmel reisse, Welt erbebe." The quality of the singing and playing is consistently high in the pure tone quality, immaculate technique, attention to period details, and musical sensitivity of the performers, but it just doesn't add up to a dramatically compelling version of the Passion. Tenor Nico van der Meel conducts and also takes the pivotal role of the Evangelist. His singing is superbly supple and warmly lyrical, and it powerfully conveys a sense of dramatic urgency that is lacking from the performance as a whole. Van der Meel's Evangelist is easily the strongest element of the recording and alone makes this a version that lovers of Bach devoted to this Passion will want to seek out, even though overall this release is not a contender for the ranks of the best recorded accounts. Quintone's sound is clean, clear, and present, but its clarity can be almost unforgivingly bright; the initial consonants, especially in the fast choral passages, tend to be sharply percussive.
–Stephen Eddins

Performer:
Nico van der Meel - Evangelist
Frans Fiselier - Jesus
Machteld Baumans, sopran
Maarten Engeltjes, alt
Marcel Beekman, tenor
Mattijs van de Woerd, bass
La Furia
Concerto Amsterdam
Nico van der Meel, conductor

Track List:
CD1:
01. Choral. O Mensch, bewein dein Sünde groß
02. Jesus ging mit seinen Jüngern
03. Choral. O große Lieb, o Lieb ohn alle Maße
04. Auf daß das Wort erfüllet würde
05. Choral. Dein Will gescheh, Herr Gott, zugleich
06. Die Schar aber und der Oberhauptmann
07. Aria. Von den Strikken meiner Sünden
08. Simon Petrus aber folgete Jesu nach
09. Aria. Ich folge dir gleichfalls
10. Derselbige Jünger war dem Hohenpriester bekannt
11. Choral. Wer hat dich so geschlagen
12. Aria. Himmel reiße, Welt erbebe / Choral. Jesu, deine Passion
13. Und Hannas sandte ihn gebunden
14. Aria. Zerschmettert mich, ihr Felsen und ihr Hügel
15. Choral. Petrus der nicht denkt zurück
16. Choral. Christus der uns selig macht
17. Da führeten sie Jesum
18. Choral. Ach großer König, groß zu allen Zeiten
19. Da sprach Pilatus zu ihm
20. Aria. Ach windet euch nicht so, geplagte Seelen
21. Und die Kriegsknechte flochten eine Krone von Dornen
22. Choral. Durch dein Gefängnis, Gottes Sohn
CD2:
01. Die Jüden aber schrieen und sprachen
02. Aria. Eilt, ihr angefochtnen Seelen
03. Allda kreuzigten sie ihn
04. Choral. In meines Herzens Grunde
05. Die Kriegsknechte aber
06. Choral. Er nahm alles wohl in acht
07. Und von Stund an nahm sie der Jünger zu sich
08. Aria. Es ist vollbracht
09. Und neiget das Haupt und verschied
10. Aria. Mein teurer Heiland / Choral. Jesu der warest tot
11. Und siehe da
12. Arioso. Mein Herz, indem die ganze Welt
13. Aria. Zerfließe, mein Herze
14. Die Jüden aber, dieweil es der Rüsttag war
15. Choral. O hilf Christe, Gottes Sohn
16. Darnach bat Pilatum
17. Chorus. Ruht wohl, ihr heiligen Gebeine
18. Choral. Christe, du Lamm Gottes


Exact Audio Copy V1.5 from 20. February 2020

EAC extraction logfile from 25. February 2021, 0:31

Machteld Baumans, Maarten Engeltjens, Marcel Beekman, Mattijs van de Woerd, Frans Fiselier, Nico van der Meel / Johannes Passion [The 1725 Version] (Disc 1)

Used drive : ATAPI iHAS124 F Adapter: 1 ID: 0

Read mode : Secure
Utilize accurate stream : Yes
Defeat audio cache : Yes
Make use of C2 pointers : No

Read offset correction : 6
Overread into Lead-In and Lead-Out : No
Fill up missing offset samples with silence : Yes
Delete leading and trailing silent blocks : No
Null samples used in CRC calculations : Yes
Used interface : Native Win32 interface for Win NT & 2000

Used output format : User Defined Encoder
Selected bitrate : 1024 kBit/s
Quality : High
Add ID3 tag : No
Command line compressor : C:\Program Files (x86)\Exact Audio Copy\FLAC\FLAC.EXE
Additional command line options : -6 -V -T "ARTIST=%artist%" -T "TITLE=%title%" -T "ALBUM=%albumtitle%" -T "DATE=%year%" -T "TRACKNUMBER=%tracknr%" -T "GENRE=%genre%" -T "COMMENT=%comment%" -T "BAND=%albuminterpret%" -T "ALBUMARTIST=%albuminterpret%" -T "COMPOSER=%composer%" %haslyrics%–tag-from-file=LYRICS="%lyricsfile%"%haslyrics% -T "DISCNUMBER=%cdnumber%" -T "TOTALDISCS=%totalcds%" -T "TOTALTRACKS=%numtracks%" %hascover%–picture="%coverfile%"%hascover% %source% -o %dest%


TOC of the extracted CD

Track | Start | Length | Start sector | End sector
––––––––––––––––––––––––––––-
1 | 0:00.00 | 5:57.46 | 0 | 26820
2 | 5:57.46 | 2:22.09 | 26821 | 37479
3 | 8:19.55 | 0:48.54 | 37480 | 41133
4 | 9:08.34 | 1:07.45 | 41134 | 46203
5 | 10:16.04 | 0:51.69 | 46204 | 50097
6 | 11:07.73 | 0:45.12 | 50098 | 53484
7 | 11:53.10 | 4:31.10 | 53485 | 73819
8 | 16:24.20 | 0:13.65 | 73820 | 74859
9 | 16:38.10 | 3:42.17 | 74860 | 91526
10 | 20:20.27 | 3:02.02 | 91527 | 105178
11 | 23:22.29 | 1:34.30 | 105179 | 112258
12 | 24:56.59 | 3:52.11 | 112259 | 129669
13 | 28:48.70 | 2:15.30 | 129670 | 139824
14 | 31:04.25 | 4:57.18 | 139825 | 162117
15 | 36:01.43 | 1:10.66 | 162118 | 167433
16 | 37:12.34 | 1:03.28 | 167434 | 172186
17 | 38:15.62 | 4:08.32 | 172187 | 190818
18 | 42:24.19 | 1:22.62 | 190819 | 197030
19 | 43:47.06 | 2:03.08 | 197031 | 206263
20 | 45:50.14 | 5:30.37 | 206264 | 231050
21 | 51:20.51 | 5:53.61 | 231051 | 257586
22 | 57:14.37 | 0:56.60 | 257587 | 261846


Range status and errors

Selected range

Filename C:\EACRip\BACH\Bach - Johannes Passion [The 1725 Version] (La Furia, Nico van der Meel) (2007)\CD1\Bach - Johannes Passion [The 1725 Version] (Disc 1) - Nico van der Meel.wav

Peak level 89.9 %
Extraction speed 8.5 X
Range quality 99.9 %
Test CRC 4EC428F1
Copy CRC 4EC428F1
Copy OK

No errors occurred


AccurateRip summary

Track 1 accurately ripped (confidence 2) [4C9796F8] (AR v1)
Track 2 accurately ripped (confidence 2) [5CC720F0] (AR v1)
Track 3 accurately ripped (confidence 2) [7EB574E2] (AR v2)
Track 4 accurately ripped (confidence 2) [90439B97] (AR v2)
Track 5 accurately ripped (confidence 2) [A5C3D084] (AR v1)
Track 6 accurately ripped (confidence 2) [F6E37563] (AR v2)
Track 7 accurately ripped (confidence 2) [1A828783] (AR v1)
Track 8 accurately ripped (confidence 2) [644EF2D0] (AR v2)
Track 9 accurately ripped (confidence 2) [440BB206] (AR v2)
Track 10 accurately ripped (confidence 2) [35DBC934] (AR v1)
Track 11 accurately ripped (confidence 2) [D0D73EF0] (AR v1)
Track 12 accurately ripped (confidence 2) [1DD463E2] (AR v1)
Track 13 accurately ripped (confidence 2) [DB8CEC24] (AR v1)
Track 14 accurately ripped (confidence 2) [DFE9B6F8] (AR v1)
Track 15 accurately ripped (confidence 2) [87BA6322] (AR v1)
Track 16 accurately ripped (confidence 2) [C0E479D2] (AR v1)
Track 17 accurately ripped (confidence 2) [EB7EB6E0] (AR v1)
Track 18 accurately ripped (confidence 2) [47E4FE4E] (AR v2)
Track 19 accurately ripped (confidence 2) [E168906A] (AR v2)
Track 20 accurately ripped (confidence 2) [3F065288] (AR v1)
Track 21 accurately ripped (confidence 2) [C20900F8] (AR v1)
Track 22 accurately ripped (confidence 2) [A84774FA] (AR v2)

All tracks accurately ripped

End of status report

–– CUETools DB Plugin V2.1.6

[CTDB TOCID: 9WekQDY9bMqxXsRGx2Ijz31UwhY-] found
Submit result: 9WekQDY9bMqxXsRGx2Ijz31UwhY- has been confirmed
Track | CTDB Status
1 | (6/6) Accurately ripped
2 | (6/6) Accurately ripped
3 | (6/6) Accurately ripped
4 | (6/6) Accurately ripped
5 | (6/6) Accurately ripped
6 | (6/6) Accurately ripped
7 | (6/6) Accurately ripped
8 | (6/6) Accurately ripped
9 | (6/6) Accurately ripped
10 | (6/6) Accurately ripped
11 | (6/6) Accurately ripped
12 | (6/6) Accurately ripped
13 | (6/6) Accurately ripped
14 | (6/6) Accurately ripped
15 | (6/6) Accurately ripped
16 | (6/6) Accurately ripped
17 | (6/6) Accurately ripped
18 | (6/6) Accurately ripped
19 | (6/6) Accurately ripped
20 | (6/6) Accurately ripped
21 | (6/6) Accurately ripped
22 | (6/6) Accurately ripped


==== Log checksum 0E92F89C70178F4BEF173CCEA84DB78ED141797448CA5EDD40CF2B5189C2C468 ====


Exact Audio Copy V1.5 from 20. February 2020

EAC extraction logfile from 25. February 2021, 1:45

Machteld Baumans, Maarten Engeltjens, Marcel Beekman, Mattijs van de Woerd, Frans Fiselier, Nico van der Meel / Johannes Passion [1725 Version] (Disc 2)

Used drive : ATAPI iHAS124 F Adapter: 1 ID: 0

Read mode : Secure
Utilize accurate stream : Yes
Defeat audio cache : Yes
Make use of C2 pointers : No

Read offset correction : 6
Overread into Lead-In and Lead-Out : No
Fill up missing offset samples with silence : Yes
Delete leading and trailing silent blocks : No
Null samples used in CRC calculations : Yes
Used interface : Native Win32 interface for Win NT & 2000

Used output format : User Defined Encoder
Selected bitrate : 1024 kBit/s
Quality : High
Add ID3 tag : No
Command line compressor : C:\Program Files (x86)\Exact Audio Copy\FLAC\FLAC.EXE
Additional command line options : -6 -V -T "ARTIST=%artist%" -T "TITLE=%title%" -T "ALBUM=%albumtitle%" -T "DATE=%year%" -T "TRACKNUMBER=%tracknr%" -T "GENRE=%genre%" -T "COMMENT=%comment%" -T "BAND=%albuminterpret%" -T "ALBUMARTIST=%albuminterpret%" -T "COMPOSER=%composer%" %haslyrics%–tag-from-file=LYRICS="%lyricsfile%"%haslyrics% -T "DISCNUMBER=%cdnumber%" -T "TOTALDISCS=%totalcds%" -T "TOTALTRACKS=%numtracks%" %hascover%–picture="%coverfile%"%hascover% %source% -o %dest%


TOC of the extracted CD

Track | Start | Length | Start sector | End sector
––––––––––––––––––––––––––––-
1 | 0:00.04 | 4:16.22 | 4 | 19225
2 | 4:16.26 | 4:09.58 | 19226 | 37958
3 | 8:26.09 | 2:08.43 | 37959 | 47601
4 | 10:34.52 | 1:00.54 | 47602 | 52155
5 | 11:35.31 | 3:47.62 | 52156 | 69242
6 | 15:23.18 | 1:07.30 | 69243 | 74297
7 | 16:30.48 | 1:25.40 | 74298 | 80712
8 | 17:56.13 | 4:56.02 | 80713 | 102914
9 | 22:52.15 | 0:19.14 | 102915 | 104353
10 | 23:11.29 | 4:35.71 | 104354 | 125049
11 | 27:47.25 | 0:30.07 | 125050 | 127306
12 | 28:17.32 | 0:51.09 | 127307 | 131140
13 | 29:08.41 | 6:28.56 | 131141 | 160296
14 | 35:37.22 | 2:05.37 | 160297 | 169708
15 | 37:42.59 | 1:04.26 | 169709 | 174534
16 | 38:47.10 | 1:52.07 | 174535 | 182941
17 | 40:39.17 | 7:06.62 | 182942 | 214953
18 | 47:46.04 | 4:09.09 | 214954 | 233637


Range status and errors

Selected range

Filename C:\EACRip\BACH\Bach - Johannes Passion [The 1725 Version] (La Furia, Nico van der Meel) (2007)\CD2\Bach - Johannes Passion [The 1725 Version] (Disc 2) - Nico van der Meel.wav

Peak level 89.1 %
Extraction speed 3.0 X
Range quality 99.9 %
Test CRC ECB14D68
Copy CRC ECB14D68
Copy OK

No errors occurred


AccurateRip summary

Track 1 accurately ripped (confidence 2) [DAF55015] (AR v1)
Track 2 accurately ripped (confidence 2) [806BB050] (AR v1)
Track 3 accurately ripped (confidence 2) [C9422534] (AR v1)
Track 4 accurately ripped (confidence 2) [E5F99614] (AR v1)
Track 5 accurately ripped (confidence 2) [CCA81B48] (AR v2)
Track 6 accurately ripped (confidence 2) [16EA5A5D] (AR v2)
Track 7 accurately ripped (confidence 2) [2F0ECC9A] (AR v1)
Track 8 accurately ripped (confidence 2) [E588148F] (AR v1)
Track 9 accurately ripped (confidence 2) [DF6691BB] (AR v1)
Track 10 accurately ripped (confidence 2) [7ADC3079] (AR v1)
Track 11 accurately ripped (confidence 2) [A5085507] (AR v1)
Track 12 accurately ripped (confidence 2) [426E037C] (AR v2)
Track 13 accurately ripped (confidence 2) [028DFAD4] (AR v2)
Track 14 accurately ripped (confidence 2) [846DA514] (AR v2)
Track 15 accurately ripped (confidence 2) [2114D7D3] (AR v1)
Track 16 accurately ripped (confidence 2) [4FE6C983] (AR v1)
Track 17 accurately ripped (confidence 2) [578248AF] (AR v1)
Track 18 accurately ripped (confidence 2) [D342A2AC] (AR v2)

All tracks accurately ripped

End of status report

–– CUETools DB Plugin V2.1.6

[CTDB TOCID: 1AyWB0M.IRSF83jzJpjstHFr69Y-] found
Submit result: 1AyWB0M.IRSF83jzJpjstHFr69Y- has been confirmed
Track | CTDB Status
1 | (5/5) Accurately ripped
2 | (5/5) Accurately ripped
3 | (5/5) Accurately ripped
4 | (5/5) Accurately ripped
5 | (5/5) Accurately ripped
6 | (5/5) Accurately ripped
7 | (5/5) Accurately ripped
8 | (5/5) Accurately ripped
9 | (5/5) Accurately ripped
10 | (5/5) Accurately ripped
11 | (5/5) Accurately ripped
12 | (5/5) Accurately ripped
13 | (5/5) Accurately ripped
14 | (5/5) Accurately ripped
15 | (5/5) Accurately ripped
16 | (5/5) Accurately ripped
17 | (5/5) Accurately ripped
18 | (5/5) Accurately ripped


==== Log checksum 54E95DD019CEC4BBE5E4C41075F5A4584855325269A1B37741E862B6EE63F3B3 ====


Thanks to the original releaser