Tags
Language
Tags
February 2023
Su Mo Tu We Th Fr Sa
29 30 31 1 2 3 4
5 6 7 8 9 10 11
12 13 14 15 16 17 18
19 20 21 22 23 24 25
26 27 28 1 2 3 4

Nicola Benedetti, Cristian Măcelaru, The Philadelphia Orchestra - Wynton Marsalis: Violin Concerto, Fiddle Dance Suite (2019)

Posted By: ArlegZ
Nicola Benedetti, Cristian Măcelaru, The Philadelphia Orchestra - Wynton Marsalis: Violin Concerto, Fiddle Dance Suite (2019)

Nicola Benedetti, Cristian Măcelaru, The Philadelphia Orchestra - Wynton Marsalis: Violin Concerto, Fiddle Dance Suite (2019)
EAC | FLAC | Image (Cue & Log) ~ 316 Mb | Total time: 67:06 | Scans included
Classical | Label: Decca ‎| # 485 0013| Recorded: 2017, 2019

Jazz trumpeter Wynton Marsalis' first forays into classical music in the 1980s were celebrated as some kind of unique breakthrough, but that overlooked the fact that Marsalis was classically trained at the Juilliard School, absorbed all kinds of traditions, and has always had aspirations in the classical sphere. Credit Marsalis with broad ambitions when he turns to classical composition, as in his Pulitzer Prize-winning oratorio Blood on the Fields (1997), and again here with a Violin Concerto and Fiddle Dance Suite, written for violinist Nicola Benedetti. Both works are impressive, not least in their idiomatic writing for the violin; they flatter Benedetti considerably. The Violin Concerto is in some respects the concerto for the instrument that Charles Ives never wrote. Not only are there polystylistic march passages that sound a great deal like Ives, but Marsalis draws on the early 20th century American in other respects. Sample the third-movement "Blues," which in addition to that style broadens out into a sort of gospel church service. This is something Ives would have loved. Moreover, there is the range of styles in the work: jazz and blues are present, but only as one element of a palette. The final "Hootenanny" picks up where Copland left off in terms of old-time country music. Marsalis sticks with traditional styles, more Scottish than American, in the Fiddle Dance Suite that rounds out the album. Leave aside the novelty of an African American composer writing a movement called "Nicola's Strathspey" and just enjoy the original harmonic universe Marsalis spins out of this dance. The Philadelphia Orchestra, not much heard on recordings in recent years, sounds great under conductor Cristian Măcelaru, and all in all this is a strong outing on the classical side from Marsalis, and a productive stretch for Benedetti as well.
–James Manheim

Performer:
Nicola Benedetti, violin
The Philadelphia Orchestra
Cristian Măcelaru, conductor

Track List:
Violin Concerto in D Major
01. I. Rhapsody
02. II. Rondo Burlesque
03. III. Blues
04. IV. Hootenanny
Fiddle Dance Suite
05. I. Sidestep Reel
06. II. As the Wind goes
07. III. Jones' Jig
08. IV. Nicola's Strathspey
09. V. Bye-Bye Breakdown


Exact Audio Copy V1.3 from 2. September 2016

EAC extraction logfile from 21. September 2019, 21:39

Nicola Benedetti / Wynton Marsalis - Violin Concerto; Fiddle Dance Suite

Used drive : ASUS SDRW-08U7M-U Adapter: 1 ID: 0

Read mode : Secure
Utilize accurate stream : Yes
Defeat audio cache : Yes
Make use of C2 pointers : No

Read offset correction : 6
Overread into Lead-In and Lead-Out : No
Fill up missing offset samples with silence : Yes
Delete leading and trailing silent blocks : No
Null samples used in CRC calculations : Yes
Used interface : Native Win32 interface for Win NT & 2000

Used output format : User Defined Encoder
Selected bitrate : 128 kBit/s
Quality : High
Add ID3 tag : No
Command line compressor : C:\Program Files (x86)\Exact Audio Copy\Flac\flac.exe
Additional command line options : -V -8 -T "Date=%year%" -T "Genre=%genre%" %source%


TOC of the extracted CD

Track | Start | Length | Start sector | End sector
––––––––––––––––––––––––––––-
1 | 0:00.00 | 12:38.70 | 0 | 56919
2 | 12:38.70 | 10:09.72 | 56920 | 102666
3 | 22:48.67 | 10:17.40 | 102667 | 148981
4 | 33:06.32 | 10:18.69 | 148982 | 195400
5 | 43:25.26 | 3:58.61 | 195401 | 213311
6 | 47:24.12 | 4:07.03 | 213312 | 231839
7 | 51:31.15 | 4:04.50 | 231840 | 250189
8 | 55:35.65 | 4:27.45 | 250190 | 270259
9 | 60:03.35 | 7:00.07 | 270260 | 301766


Range status and errors

Selected range

Filename C:\temp\Wynton Marsalis - Violin Concerto; Fiddle Dance Suite - Benedetti - 2019\Wynton Marsalis - Violin Concerto; Fiddle Dance Suite.wav

Peak level 98.0 %
Extraction speed 4.8 X
Range quality 100.0 %
Test CRC 524A5089
Copy CRC 524A5089
Copy OK

No errors occurred


AccurateRip summary

Track 1 accurately ripped (confidence 1) [547EBEB3] (AR v2)
Track 2 accurately ripped (confidence 1) [AEEBFC32] (AR v2)
Track 3 accurately ripped (confidence 1) [3ACB4253] (AR v2)
Track 4 accurately ripped (confidence 1) [AE32F062] (AR v2)
Track 5 accurately ripped (confidence 1) [0DB12724] (AR v2)
Track 6 accurately ripped (confidence 1) [53DEF072] (AR v2)
Track 7 accurately ripped (confidence 1) [E22D4911] (AR v2)
Track 8 accurately ripped (confidence 1) [8C4E6BDB] (AR v2)
Track 9 accurately ripped (confidence 1) [47E1E54D] (AR v2)

All tracks accurately ripped

End of status report

==== Log checksum 78A3FE3B62FF60CF9FD7B3A08F3B0C32DCDA3AB8ED84C5364DE0FA1555960997 ====

Nicola Benedetti, Cristian Măcelaru, The Philadelphia Orchestra - Wynton Marsalis: Violin Concerto, Fiddle Dance Suite (2019)

Thanks to the original releaser