Subcategories

Night Legion - Night Legion (2017)

Posted By: Andi_Deris
Night Legion - Night Legion (2017)

Night Legion - Night Legion (2017)
EAC Rip | FLAC: Image+Cue+Log | 314 Mb | MP3 CBR 320 kbps | 99 Mb | Scans | 31 Mb | 37:55
Massacre Records | MAS CD0989
Power Metal

NIGHT LEGION, the new high energy Australian power metal band. Definitely power metal, but an aggressive style! Band like Judas Priest, Iron Maiden, Primal Fear and Vicious Rumours are a good example of influences. Night Legion, is the latest creation of guitarist / producer Stu "The Hammer" Marshall, known as the mastermind of the all star metal project Empires Of Eden, stage right guitarist in heavy metal super group Death Dealer alongside six string legend and partner Ross The Boss (Manowar co-founder) and the ripping axeman in shred metal newcomers Blasted To Static fronted by iconic vocalist Jeff Martin (the legendary voice of Racer X).

Night Legion - Night Legion (2017)




Track Listing

01. Into The Light (03:40)
02. Night Legion (02:53)
03. Enter The Storm (03:56)
04. The Warrior (04:09)
05. This Time (04:24)
06. Hell Below (04:46)
07. The Eye Of Hydra (04:19)
08. As Flames Scorch The Ground (03:25)
09. Titan (06:21)

Produced by Stu Marshall

The Band

• Vo Simpson - Vocals
• Stu Marshall - Guitar
• Glenn Williams - Bass
• Clay T. - Drums

*****
• Tsuyoshi Ikedo - Guitar solo (8)
• Ross The Boss & Pete Lesperance - Guitar solos (9)

Exact Audio Copy V1.3 from 2. September 2016

EAC extraction logfile from 1. November 2017, 12:55

Night Legion / Night Legion

Used drive : MATSHITADVD-RAM UJ8G6 Adapter: 1 ID: 0

Read mode : Secure
Utilize accurate stream : Yes
Defeat audio cache : Yes
Make use of C2 pointers : No

Read offset correction : 103
Overread into Lead-In and Lead-Out : No
Fill up missing offset samples with silence : Yes
Delete leading and trailing silent blocks : No
Null samples used in CRC calculations : Yes
Used interface : Native Win32 interface for Win NT & 2000

Used output format : User Defined Encoder
Selected bitrate : 1024 kBit/s
Quality : High
Add ID3 tag : No
Command line compressor : C:\Program Files (x86)\Exact Audio Copy\FLAC\FLAC.EXE
Additional command line options : -V -8 -T "Date=%year%" -T"Genre=%genre%" -T"COMMENT=Ripped by Ilijan" -8 -V %source%


TOC of the extracted CD

Track | Start | Length | Start sector | End sector
––––––––––––––––––––––––––––-
1 | 0:00.00 | 3:39.62 | 0 | 16486
2 | 3:39.62 | 2:53.02 | 16487 | 29463
3 | 6:32.64 | 3:56.29 | 29464 | 47192
4 | 10:29.18 | 4:09.18 | 47193 | 65885
5 | 14:38.36 | 4:23.50 | 65886 | 85660
6 | 19:02.11 | 4:46.18 | 85661 | 107128
7 | 23:48.29 | 4:19.18 | 107129 | 126571
8 | 28:07.47 | 3:25.30 | 126572 | 141976
9 | 31:33.02 | 6:20.71 | 141977 | 170547


Range status and errors

Selected range

Filename D:\VkniSHIT\Night Legion - Night Legion.wav

Peak level 96.6 %
Extraction speed 3.8 X
Range quality 100.0 %
Test CRC 7E6C57BC
Copy CRC 7E6C57BC
Copy OK

No errors occurred


AccurateRip summary

Track 1 not present in database
Track 2 not present in database
Track 3 not present in database
Track 4 not present in database
Track 5 not present in database
Track 6 not present in database
Track 7 not present in database
Track 8 not present in database
Track 9 not present in database

None of the tracks are present in the AccurateRip database

End of status report

–– CUETools DB Plugin V2.1.6

[CTDB TOCID: ClbXUheOkHR654RT3zEOth5sQ0U-] disk not present in database
Submit result: ClbXUheOkHR654RT3zEOth5sQ0U- has been uploaded


==== Log checksum F44F0F40B76E1103AC7243A1E3C9E17FA459898AAA32AE7306C0318A4F0B998D ====


Many thanks to the original uploader: Ilijan

SEE also:
Death Dealer 2013 War Master
Death Dealer 2015 Hallowed Ground [Digipak]



Password: pass