Tags
Language
Tags

Nikolaus Harnoncourt, Concentus musicus Wien - Handel: Ode for St. Cecilia's Day (1996)

Posted By: ArlegZ
Nikolaus Harnoncourt, Concentus musicus Wien - Handel: Ode for St. Cecilia's Day (1996)

Nikolaus Harnoncourt, Concentus musicus Wien - Handel: Ode for St. Cecilia's Day (1996)
EAC | FLAC | Image (Cue & Log) ~ 212 Mb | Total time: 49:32 | Scans included
Classical | Label: Teldec | # 0630-12319-2 | Recorded: 1977

This is one of Handel's most inspired and invigorating works. Relatively short (50 minutes), it is an ode to music itself, with arias and choruses in praise of the attributes of various instruments, from the "trumpet's loud clangor" to the "soft complaining flute", of course featuring solos for those players. It also has one of Handel's most rousing final choruses, depicting the end of the world, when "music shall untune the sky".
Harnoncourt's is a wonderfully vivid performance. Musical characterization has always been Harnoncourt's strong suit, and it pays dividends here. The playing and singing are first rate, and the recording is excellent. There are a couple of Harnoncourt mannerisms (such as a short final note), but nothing that seriously detracts from a splendid overall experience.
–Lance Friedel

Performed:
Felicity Palmer, soprano
Anthony Rolfe Johnson, tenor
Bachchor Stockholm
Concentus musicus Wien
Nikolaus Harnoncourt, conductor

Track List:
01. Overture
02. From Harmony, From Heav'nly Harmony
03. What Passion Cannot Music Raise And Quel!
04. The Trumpet's Loud Clangor
05. La Marche
06. The Soft Complaining Flute
07. Sharp Violins Proclaim
08. But Oh! What Art Can Teach
09. Orpheus Could Lead The Savage Race
10. But Bright Cecilia Rais'd The Wonder High'r
11. As From The Pow'r Of Sacred Lays


Exact Audio Copy V1.3 from 2. September 2016

EAC extraction logfile from 3. September 2018, 14:50

Felicity Palmer, Anthony Rolfe Johnson; Nikolaus Harnoncourt / Handel - Ode for St. Cecilia's Day

Used drive : ATAPI iHAS124 F Adapter: 1 ID: 0

Read mode : Secure
Utilize accurate stream : Yes
Defeat audio cache : Yes
Make use of C2 pointers : No

Read offset correction : 6
Overread into Lead-In and Lead-Out : No
Fill up missing offset samples with silence : Yes
Delete leading and trailing silent blocks : No
Null samples used in CRC calculations : Yes
Used interface : Native Win32 interface for Win NT & 2000

Used output format : User Defined Encoder
Selected bitrate : 1024 kBit/s
Quality : High
Add ID3 tag : No
Command line compressor : C:\Program Files (x86)\Exact Audio Copy\FLAC\FLAC.EXE
Additional command line options : -8 -V -T "TITLE=%title%" -T "ARTIST=%artist%" -T "ALBUMARTIST=%albumartist%" -T "ALBUM=%albumtitle%" -T "DATE=%year%" -T "TRACKNUMBER=%tracknr%" -T "TRACKTOTAL=%numtracks%" -T "GENRE=%genre%" -T "COMMENT=%comment%" -T "PERFORMER=%albuminterpret%" -T "COMPOSER=%composer%" %source% -o %dest%


TOC of the extracted CD

Track | Start | Length | Start sector | End sector
––––––––––––––––––––––––––––-
1 | 0:00.00 | 8:43.47 | 0 | 39271
2 | 8:43.47 | 3:51.03 | 39272 | 56599
3 | 12:34.50 | 8:36.15 | 56600 | 95314
4 | 21:10.65 | 3:53.50 | 95315 | 112839
5 | 25:04.40 | 1:50.05 | 112840 | 121094
6 | 26:54.45 | 4:38.25 | 121095 | 141969
7 | 31:32.70 | 4:29.42 | 141970 | 162186
8 | 36:02.37 | 4:03.15 | 162187 | 180426
9 | 40:05.52 | 1:48.33 | 180427 | 188559
10 | 41:54.10 | 0:36.10 | 188560 | 191269
11 | 42:30.20 | 7:01.50 | 191270 | 222894


Range status and errors

Selected range

Filename C:\EACRip\HANDEL\Handel - Ode for St. Cecilia's Day (Nikolaus Harnoncourt) (1996 [1978])\Handel - Ode for St. Cecilia's Day - Nikolaus Harnoncourt.wav

Peak level 85.6 %
Extraction speed 8.2 X
Range quality 100.0 %
Test CRC F9B67F4C
Copy CRC F9B67F4C
Copy OK

No errors occurred


AccurateRip summary

Track 1 accurately ripped (confidence 3) [1D62F55D] (AR v2)
Track 2 accurately ripped (confidence 3) [5FF28771] (AR v2)
Track 3 accurately ripped (confidence 3) [C6186B97] (AR v2)
Track 4 accurately ripped (confidence 3) [E914CD0A] (AR v2)
Track 5 accurately ripped (confidence 3) [43217258] (AR v2)
Track 6 accurately ripped (confidence 3) [4A4EFB6C] (AR v2)
Track 7 accurately ripped (confidence 3) [0096A398] (AR v2)
Track 8 accurately ripped (confidence 3) [E4C26AD2] (AR v2)
Track 9 accurately ripped (confidence 3) [980962AD] (AR v2)
Track 10 accurately ripped (confidence 3) [C7DB1EFD] (AR v2)
Track 11 accurately ripped (confidence 3) [B341FED7] (AR v2)

All tracks accurately ripped

End of status report

–– CUETools DB Plugin V2.1.6

[CTDB TOCID: BF7fzB_RHWgx2XFlJpo4KS9gK1U-] found
Submit result: BF7fzB_RHWgx2XFlJpo4KS9gK1U- has been confirmed
Track | CTDB Status
1 | (32/33) Accurately ripped
2 | (33/33) Accurately ripped
3 | (33/33) Accurately ripped
4 | (33/33) Accurately ripped
5 | (33/33) Accurately ripped
6 | (33/33) Accurately ripped
7 | (33/33) Accurately ripped
8 | (33/33) Accurately ripped
9 | (33/33) Accurately ripped
10 | (33/33) Accurately ripped
11 | (33/33) Accurately ripped


==== Log checksum 03AD49AD4CFE62F279FDBE97B1F0C5B5852CD9A6DBD69802481190CF81B3550D ====

Nikolaus Harnoncourt, Concentus musicus Wien - Handel: Ode for St. Cecilia's Day (1996)

Thanks to the original releaser