Tags
Language
Tags

Nikolaus Harnoncourt - The Complete Sony Recordings, Part 12 (2016)

Posted By: ArlegZ
Nikolaus Harnoncourt - The Complete Sony Recordings, Part 12 (2016)

Nikolaus Harnoncourt - The Complete Sony Recordings, Part 12 (2016)
EAC | FLAC | Image (Cue & Log) ~ 965 Mb | Total time: 03:26:32 | Scans included
Classical | Label: Sony Classical | # 88875173752 | Recorded: 1991-2015

Nikolaus Harnoncourt The Complete Sony Recordings brings together for the first time Harnoncourt s complete recordings from 2002-2015 with his Concentus Musicus Wien, the Wiener Philharmonike, the Chamber Orchestra of Europe and the Symphonieorchester des Bayrischen Rundfunks. The Sony Classical edition features his famous symphony recordings of Mozart, Haydn, Beethoven and Bruckner, alongside his celebrated performances of great choral works such as the Verdi, Brahms and Mozart Requiems and Haydn's Die Schöpfung, as well as Mozart's opera Zaide, Haydn's Orlando paladino and Gershwin's Porgy and Bess. Also included are previously authorized but unreleased recordings of J. S. Bach s Cantatas Nos. 26 & 36, Beethoven's Christus am Ölberge and Dvorák's Stabat Mater.

Contents:
CDs 58-59: Neujahrskonzert 2003 - New Year's Concert 2003
CDs 60-61: Walzer Revolution - From Mozart's Dances to Lanner and Strauss


New Year's Concert 2003
CD 58: [48:45]
Johann Strauss II
01. Kaiser Franz Joseph I. Rettungs-Jubel-Marsch Op. 126
02. Schatz-Walzer, Op. 418
03. Niko-Polka, Op. 228
04. Scherz-Polka, Op. 72
Josef Strauss
05. Delirien Waltz, Op. 212
06. Pêle-mêle, polka schnell, Op. 161
Carl Maria von Weber
07. Invitation to the Dance, Op. 65
Johann Strauss II
08. Secunden-Polka, Op. 258
09. Hellenen-Polka, Op. 203
CD 59: [57:33]
Johann Strauss II
01. Kaiser-Walzer (Emperor Waltz), Op. 437
02. Bauern Polka, Polka française, Op. 276
03. Lob der Frauen, polka-mazurka, Op. 315
Johann Strauss I
04. Chineser-Galopp, Op. 20
Johannes Brahms
05. Ungarischer Tanz Nr. 5 g-Moll, WoO 1
06. Ungarischer Tanz Nr. 6 D-Dur WoO 1
Johann Strauss II
07. Krönungslieder - Walzer, Op. 184
08. Leichtes Blut, polka schnell, Op. 319
09. Furioso-Polka quasi Galopp, Op. 260
10. Neujahrsgruß - Nikolaus Harnoncourt
Johann Strauss II
11. An der schönen, blauen Donau, Op. 314
Johann Strauss I
12. Radetzky March, Op. 228

Wiener Philharmoniker
Nikolaus Harnoncourt, conductor


Walzer Revolution - From Mozart's Dances to Lanner and Strauss
CD 60: [41:58]
Wolfgang Amadeus Mozart
01. Kontretanz in D major, KV 603/1
02. Kontretanz in C major, KV 609/1
03. Kontretanz in C major, KV 609/4
Sechs deutsche Tänze, KV 571
04. Deutscher Tanz Nr. 1 in D major
05. Deutscher Tanz Nr. 2 in A major
06. Deutscher Tanz Nr. 3 in C major
07. Deutscher Tanz Nr. 4 in G major
08. Deutscher Tanz Nr. 5 in B-flat major
09. Deutscher Tanz Nr. 6 in D major
Johann Strauss I
10. Radetzky-Marsch, Op. 228
11. Erste Kettenbrücke-Walzer, Op. 4
12. Schäfer-Quadrille, Op. 217
13. Der Carneval in Paris, Galopp, Op. 100
14. Walzer à la Paganini, Op. 11
CD 61: [58:16]
Joseph Lanner
01. Pas de neuf nach, WoO
02. Sehnsuchts-Mazur, Op. 89
03. Hans-Jörgel-Polka, Op. 194
04. Malapou-Galopp, Op. 148a
05. Hexen-Tanz, Op. 203
06. Marsch from Ballet Corso Donati
07. Cerrito-Polka, Op. 189
08. Jägers Lust, Op. 82
09. Die Schönbrunner, Walzer, Op. 200

Concentus Musicus Wien
Nikolaus Harnoncourt, conductor




Exact Audio Copy V1.6 from 23. October 2020

EAC extraction logfile from 11. August 2021, 21:14

Nikolaus Harnoncourt, Wiener Philharmoniker / New Year's Concert 2003 (I)

Used drive : PIONEER DVD-RW DVR-218L Adapter: 1 ID: 0

Read mode : Secure
Utilize accurate stream : Yes
Defeat audio cache : Yes
Make use of C2 pointers : No

Read offset correction : 6
Overread into Lead-In and Lead-Out : No
Fill up missing offset samples with silence : Yes
Delete leading and trailing silent blocks : No
Null samples used in CRC calculations : Yes
Used interface : Native Win32 interface for Win NT & 2000

Used output format : User Defined Encoder
Selected bitrate : 128 kBit/s
Quality : High
Add ID3 tag : No
Command line compressor : C:\Program Files\Exact Audio Copy\Flac\flac.exe
Additional command line options : -V -8 -T "Date=%year%" -T "Genre=%genre%" %source%


TOC of the extracted CD

Track | Start | Length | Start sector | End sector
––––––––––––––––––––––––––––-
1 | 0:00.00 | 3:38.49 | 0 | 16398
2 | 3:38.49 | 9:00.27 | 16399 | 56925
3 | 12:39.01 | 4:05.16 | 56926 | 75316
4 | 16:44.17 | 3:44.52 | 75317 | 92168
5 | 20:28.69 | 10:19.67 | 92169 | 138660
6 | 30:48.61 | 2:20.39 | 138661 | 149199
7 | 33:09.25 | 9:44.52 | 149200 | 193051
8 | 42:54.02 | 3:31.26 | 193052 | 208902
9 | 46:25.28 | 2:19.71 | 208903 | 219398


Range status and errors

Selected range

Filename C:\ArlegZ\Nikolaus Harnoncourt - New Year's Concert 2003 (I).wav

Peak level 92.4 %
Extraction speed 1.7 X
Range quality 100.0 %
Test CRC EA3789DB
Copy CRC EA3789DB
Copy OK

No errors occurred


AccurateRip summary

Track 1 accurately ripped (confidence 13) [118ECD83] (AR v2)
Track 2 accurately ripped (confidence 13) [9D20E75A] (AR v2)
Track 3 accurately ripped (confidence 13) [9D12B76E] (AR v2)
Track 4 accurately ripped (confidence 13) [DA8C67A7] (AR v2)
Track 5 accurately ripped (confidence 13) [B4162112] (AR v2)
Track 6 accurately ripped (confidence 13) [53D44457] (AR v2)
Track 7 accurately ripped (confidence 13) [3B5D12DE] (AR v2)
Track 8 accurately ripped (confidence 13) [051B5DA5] (AR v2)
Track 9 accurately ripped (confidence 13) [3E817B97] (AR v2)

All tracks accurately ripped

End of status report

–– CUETools DB Plugin V2.1.6

[CTDB TOCID: jkgEZb715Nbf7cArLVuspxwhkQA-] found
Submit result: jkgEZb715Nbf7cArLVuspxwhkQA- has been confirmed
Track | CTDB Status
1 | ( 30/202) Accurately ripped
2 | ( 30/202) Accurately ripped
3 | ( 30/202) Accurately ripped
4 | ( 30/202) Accurately ripped
5 | ( 29/202) Accurately ripped
6 | ( 29/202) Accurately ripped
7 | ( 29/202) Accurately ripped
8 | ( 30/202) Accurately ripped
9 | ( 30/202) Accurately ripped


==== Log checksum E8DB59DC97FD218412E4F92A663A6D646B4336080A4542427403233D612290FD ====


Exact Audio Copy V1.6 from 23. October 2020

EAC extraction logfile from 11. August 2021, 22:22

Nikolaus Harnoncourt, Wiener Philharmoniker / New Year's Concert 2003 (II)

Used drive : PIONEER DVD-RW DVR-218L Adapter: 1 ID: 0

Read mode : Secure
Utilize accurate stream : Yes
Defeat audio cache : Yes
Make use of C2 pointers : No

Read offset correction : 6
Overread into Lead-In and Lead-Out : No
Fill up missing offset samples with silence : Yes
Delete leading and trailing silent blocks : No
Null samples used in CRC calculations : Yes
Used interface : Native Win32 interface for Win NT & 2000

Used output format : User Defined Encoder
Selected bitrate : 128 kBit/s
Quality : High
Add ID3 tag : No
Command line compressor : C:\Program Files\Exact Audio Copy\Flac\flac.exe
Additional command line options : -V -8 -T "Date=%year%" -T "Genre=%genre%" %source%


TOC of the extracted CD

Track | Start | Length | Start sector | End sector
––––––––––––––––––––––––––––-
1 | 0:00.00 | 12:01.29 | 0 | 54103
2 | 12:01.29 | 3:08.32 | 54104 | 68235
3 | 15:09.61 | 4:20.60 | 68236 | 87795
4 | 19:30.46 | 1:51.68 | 87796 | 96188
5 | 21:22.39 | 2:44.52 | 96189 | 108540
6 | 24:07.16 | 3:42.08 | 108541 | 125198
7 | 27:49.24 | 9:29.46 | 125199 | 167919
8 | 37:18.70 | 2:42.74 | 167920 | 180143
9 | 40:01.69 | 2:33.46 | 180144 | 191664
10 | 42:35.40 | 1:05.74 | 191665 | 196613
11 | 43:41.39 | 10:18.68 | 196614 | 243031
12 | 54:00.32 | 3:32.27 | 243032 | 258958


Range status and errors

Selected range

Filename C:\ArlegZ\Nikolaus Harnoncourt - New Year's Concert 2003 (II).wav

Peak level 99.7 %
Extraction speed 1.8 X
Range quality 99.9 %
Test CRC A2AE4496
Copy CRC A2AE4496
Copy OK

No errors occurred


AccurateRip summary

Track 1 accurately ripped (confidence 14) [520C561A] (AR v2)
Track 2 accurately ripped (confidence 14) [CE757CD3] (AR v2)
Track 3 accurately ripped (confidence 14) [D5EBF73C] (AR v2)
Track 4 accurately ripped (confidence 14) [C9155263] (AR v2)
Track 5 accurately ripped (confidence 14) [743F12D9] (AR v2)
Track 6 accurately ripped (confidence 14) [BF9BE616] (AR v2)
Track 7 accurately ripped (confidence 14) [1FF15CD7] (AR v2)
Track 8 accurately ripped (confidence 14) [E375E614] (AR v2)
Track 9 accurately ripped (confidence 14) [DEE0F4A6] (AR v2)
Track 10 accurately ripped (confidence 14) [409DE5F3] (AR v2)
Track 11 accurately ripped (confidence 14) [AB8D216D] (AR v2)
Track 12 accurately ripped (confidence 14) [C66177A6] (AR v2)

All tracks accurately ripped

End of status report

–– CUETools DB Plugin V2.1.6

[CTDB TOCID: cU5gzrkk72PrL1l2ImefXex04KA-] found
Submit result: cU5gzrkk72PrL1l2ImefXex04KA- has been confirmed
Track | CTDB Status
1 | ( 32/202) Accurately ripped
2 | ( 32/202) Accurately ripped
3 | ( 32/202) Accurately ripped
4 | ( 32/202) Accurately ripped
5 | ( 32/202) Accurately ripped
6 | ( 31/202) Accurately ripped
7 | ( 32/202) Accurately ripped
8 | ( 31/202) Accurately ripped
9 | ( 32/202) Accurately ripped
10 | ( 32/202) Accurately ripped
11 | ( 32/202) Accurately ripped
12 | ( 32/202) Accurately ripped


==== Log checksum A6AD33026DE1CCE0ED724D414AB5BF8D0C8A181F92FD77BF04F7BBFCD438CAAE ====


Exact Audio Copy V1.6 from 23. October 2020

EAC extraction logfile from 12. August 2021, 18:16

Nikolaus Harnoncourt, Concentus Musicus Wien / Walzer Revolution (I)

Used drive : PIONEER DVD-RW DVR-218L Adapter: 1 ID: 0

Read mode : Secure
Utilize accurate stream : Yes
Defeat audio cache : Yes
Make use of C2 pointers : No

Read offset correction : 6
Overread into Lead-In and Lead-Out : No
Fill up missing offset samples with silence : Yes
Delete leading and trailing silent blocks : No
Null samples used in CRC calculations : Yes
Used interface : Native Win32 interface for Win NT & 2000

Used output format : User Defined Encoder
Selected bitrate : 128 kBit/s
Quality : High
Add ID3 tag : No
Command line compressor : C:\Program Files\Exact Audio Copy\Flac\flac.exe
Additional command line options : -V -8 -T "Date=%year%" -T "Genre=%genre%" %source%


TOC of the extracted CD

Track | Start | Length | Start sector | End sector
––––––––––––––––––––––––––––-
1 | 0:00.00 | 1:09.34 | 0 | 5208
2 | 1:09.34 | 1:14.28 | 5209 | 10786
3 | 2:23.62 | 2:05.34 | 10787 | 20195
4 | 4:29.21 | 1:29.07 | 20196 | 26877
5 | 5:58.28 | 1:23.16 | 26878 | 33118
6 | 7:21.44 | 1:35.07 | 33119 | 40250
7 | 8:56.51 | 1:41.53 | 40251 | 47878
8 | 10:38.29 | 1:32.39 | 47879 | 54817
9 | 12:10.68 | 3:06.31 | 54818 | 68798
10 | 15:17.24 | 3:37.73 | 68799 | 85146
11 | 18:55.22 | 6:43.11 | 85147 | 115382
12 | 25:38.33 | 5:49.64 | 115383 | 141621
13 | 31:28.22 | 2:33.60 | 141622 | 153156
14 | 34:02.07 | 7:56.24 | 153157 | 188880


Range status and errors

Selected range

Filename C:\ArlegZ\Nikolaus Harnoncourt - Walzer Revolution (I).wav

Peak level 96.6 %
Extraction speed 1.7 X
Range quality 100.0 %
Test CRC 76E6533D
Copy CRC 76E6533D
Copy OK

No errors occurred


AccurateRip summary

Track 1 accurately ripped (confidence 74) [CCB91719] (AR v2)
Track 2 accurately ripped (confidence 74) [309F9E32] (AR v2)
Track 3 accurately ripped (confidence 74) [A2247C57] (AR v2)
Track 4 accurately ripped (confidence 74) [3ACC9790] (AR v2)
Track 5 accurately ripped (confidence 74) [C84737BB] (AR v2)
Track 6 accurately ripped (confidence 74) [9EA0360A] (AR v2)
Track 7 accurately ripped (confidence 74) [7755FA33] (AR v2)
Track 8 accurately ripped (confidence 74) [8FD69FFA] (AR v2)
Track 9 accurately ripped (confidence 74) [4E7CA15F] (AR v2)
Track 10 accurately ripped (confidence 74) [29E475A4] (AR v2)
Track 11 accurately ripped (confidence 74) [19FF3744] (AR v2)
Track 12 accurately ripped (confidence 74) [B6A2899A] (AR v2)
Track 13 accurately ripped (confidence 74) [7E859EA8] (AR v2)
Track 14 accurately ripped (confidence 73) [5AB76711] (AR v2)

All tracks accurately ripped

End of status report

–– CUETools DB Plugin V2.1.6

[CTDB TOCID: FY5jSRBGPA.6VnLzvP2tu4b67_8-] found
Submit result: FY5jSRBGPA.6VnLzvP2tu4b67_8- has been confirmed
Track | CTDB Status
1 | (132/133) Accurately ripped
2 | (132/133) Accurately ripped
3 | (132/133) Accurately ripped
4 | (132/133) Accurately ripped
5 | (132/133) Accurately ripped
6 | (132/133) Accurately ripped
7 | (132/133) Accurately ripped
8 | (132/133) Accurately ripped
9 | (132/133) Accurately ripped
10 | (132/133) Accurately ripped
11 | (132/133) Accurately ripped
12 | (132/133) Accurately ripped
13 | (132/133) Accurately ripped
14 | (127/133) Accurately ripped, or (3/133) differs in 7626 samples @07:56:05-07:56:12


==== Log checksum 82CE8C9E1B125A191445B53DEA8E80A4E748DD9CC7DD7528D8AABAB6C89E9490 ====


Exact Audio Copy V1.6 from 23. October 2020

EAC extraction logfile from 12. August 2021, 19:22

Nikolaus Harnoncourt, Concentus Musicus Wien / Walzer Revolution (II)

Used drive : PIONEER DVD-RW DVR-218L Adapter: 1 ID: 0

Read mode : Secure
Utilize accurate stream : Yes
Defeat audio cache : Yes
Make use of C2 pointers : No

Read offset correction : 6
Overread into Lead-In and Lead-Out : No
Fill up missing offset samples with silence : Yes
Delete leading and trailing silent blocks : No
Null samples used in CRC calculations : Yes
Used interface : Native Win32 interface for Win NT & 2000

Used output format : User Defined Encoder
Selected bitrate : 128 kBit/s
Quality : High
Add ID3 tag : No
Command line compressor : C:\Program Files\Exact Audio Copy\Flac\flac.exe
Additional command line options : -V -8 -T "Date=%year%" -T "Genre=%genre%" %source%


TOC of the extracted CD

Track | Start | Length | Start sector | End sector
––––––––––––––––––––––––––––-
1 | 0:00.00 | 14:23.47 | 0 | 64771
2 | 14:23.47 | 9:05.43 | 64772 | 105689
3 | 23:29.15 | 3:44.59 | 105690 | 122548
4 | 27:13.74 | 1:25.71 | 122549 | 128994
5 | 28:39.70 | 9:36.13 | 128995 | 172207
6 | 38:16.08 | 4:14.24 | 172208 | 191281
7 | 42:30.32 | 3:57.47 | 191282 | 209103
8 | 46:28.04 | 2:39.67 | 209104 | 221095
9 | 49:07.71 | 9:08.19 | 221096 | 262214


Range status and errors

Selected range

Filename C:\ArlegZ\Nikolaus Harnoncourt - Walzer Revolution (II).wav

Peak level 96.6 %
Extraction speed 1.8 X
Range quality 100.0 %
Test CRC A7FAE074
Copy CRC A7FAE074
Copy OK

No errors occurred


AccurateRip summary

Track 1 accurately ripped (confidence 71) [F0629FE2] (AR v2)
Track 2 accurately ripped (confidence 71) [C44C96E3] (AR v2)
Track 3 accurately ripped (confidence 71) [C1B01608] (AR v2)
Track 4 accurately ripped (confidence 71) [A93517D8] (AR v2)
Track 5 accurately ripped (confidence 71) [5D1E3686] (AR v2)
Track 6 accurately ripped (confidence 71) [5DDC459B] (AR v2)
Track 7 accurately ripped (confidence 71) [398C2514] (AR v2)
Track 8 accurately ripped (confidence 71) [77FC84E6] (AR v2)
Track 9 accurately ripped (confidence 70) [1C56B32F] (AR v2)

All tracks accurately ripped

End of status report

–– CUETools DB Plugin V2.1.6

[CTDB TOCID: hlvBReV72HY_WqgLNpx1Ty.USG4-] found
Submit result: hlvBReV72HY_WqgLNpx1Ty.USG4- has been confirmed
Track | CTDB Status
1 | (135/136) Accurately ripped
2 | (135/136) Accurately ripped
3 | (135/136) Accurately ripped
4 | (135/136) Accurately ripped
5 | (135/136) Accurately ripped
6 | (134/136) Accurately ripped
7 | (135/136) Accurately ripped
8 | (135/136) Accurately ripped
9 | (133/136) Accurately ripped


==== Log checksum 408DB0BA35722FCA641EB3C1F438FA164ADA504534C086BA13EAC268F582C51B ====


Nikolaus Harnoncourt - The Complete Sony Recordings, Part 12 (2016)