Subcategories
Tags
Language
Tags

Nikolaus Harnoncourt - The Complete Sony Recordings, Part 5 [7 CDs] (2016)

Posted By: ArlegZ
Nikolaus Harnoncourt - The Complete Sony Recordings, Part 5 [7 CDs] (2016)

Nikolaus Harnoncourt - The Complete Sony Recordings, Part 5 (2016)
EAC | FLAC | Image (Cue & Log) ~ 2,25 Gb | Total time: 08:40:44 | Scans included
Classical | Label: Sony Classical | # 88875173752 | Recorded: 1991-2015

Nikolaus Harnoncourt The Complete Sony Recordings brings together for the first time Harnoncourt s complete recordings from 2002-2015 with his Concentus Musicus Wien, the Wiener Philharmonike, the Chamber Orchestra of Europe and the Symphonieorchester des Bayrischen Rundfunks. The Sony Classical edition features his famous symphony recordings of Mozart, Haydn, Beethoven and Bruckner, alongside his celebrated performances of great choral works such as the Verdi, Brahms and Mozart Requiems and Haydn's Die Schöpfung, as well as Mozart's opera Zaide, Haydn's Orlando paladino and Gershwin's Porgy and Bess. Also included are previously authorized but unreleased recordings of J. S. Bach s Cantatas Nos. 26 & 36, Beethoven's Christus am Ölberge and Dvorák's Stabat Mater.

Contents:
CD 18-19: Mozart - Early Symphonies Vol. 1
CD 20-21: Mozart - Early Symphonies Vol. 2
CD 22-24: Mozart - Early Symphonies Vol. 3


Mozart: Early Symphonies
CD 18: [75:13]
01-03. Symphony No. 1 in E-flat major K 16
04-06. Symphony No. 4 in D major K 19
07-09. Symphony No. 4a in F major K Anh 223 (19a)
10-12. Symphony No. 5 in B major K 22
13-16. Symphony No. 43 in F major K 76 (42a)
17-20. Symphony No. 6 in F major K 43
CD 19: [76:07]
01-03. Symphony No. 7a in G major "Alte Lambach" K Anh 221 (45a)
04-07. Symphony No. 7 in D major K 45
08-11. Symphony No. 55 in B-flat major K Anh 214 (45b)
12-15. Symphony No. 8 in D major K 48
16-19. Symphony No. 9 in C major K 73 (75a)
20-22. Symphony No. 44 in D major K 81 (73l)
CD 20: [76:44]
01-04. Symphony No. 47 in D major K 97 (73m)
05-08. Symphony No. 45 in D major K 95 (73n)
09-11. Symphony No. 11 in D major K 84 (73q)
12-14. Symphony No. 10 in G major K 74
15-18. Symphony No. 42 in F major K 75
19-22. Symphony No. 12 in G major K 110 (75b)
23-25. Symphony No. 48 in D major (Ouverture “Ascanio in Alba” K 111 & Finale K 120 (111a))
CD 21: [70:02]
01-04. Symphony No. 46 in C major K 96 (111b)
05-08. Symphony No. 13 in F major K 112
09-12. Symphony No. 14 in A major K 114
13-16. Symphony No. 15 in G major K 124
17. Sinfonie-Menuett in C major K 409 (383f)
CD 22: [73:38]
01-03. Symphony No. 16 in C major K 128
04-06. Symphony No. 17 G major K 129
07-10. Symphony No. 18 in F major K 130
11-14. Symphony No. 19 in E-flat major K 132
15. Symphony No. 19 in E-flat major K 132: Andante (Version I)
CD 23: [71:36]
01-04. Symphony No. 20 in D major K 133
05-08. Symphony No. 21 in A major K 134
09-11. Symphony No. 50 in D major K 161 (141a) Ouverture "Il sogno di Scipione" K 126 & Finale K 163
12-14. Symphony No. 22 in C major K 162
15-17. Symphony No. 26 in E-flat major K 184 (161a)
CD 24: [77:24]
01-03. Symphony No. 27 in G major K 199 (161b)
04-06. Symphony No. 23 in D major K 181 (162b)
07-09. Symphony No. 24 in B-flat major K 182 (173dA)
10-13. Symphony No. 25 in G minor K 183 (173dB)
14-16. Symphony No. 51 in D major Ouverture "La finta giardiniera" K 196 & Finale K 121 (207a)

Concentus Musicus Wien
Nikolaus Harnoncourt, conductor




Exact Audio Copy V1.6 from 23. October 2020

EAC extraction logfile from 10. July 2021, 15:37

Nikolaus Harnoncourt, Concentus Musicus / Mozart - Early Symphonies vol.1 (I)

Used drive : PIONEER DVD-RW DVR-218L Adapter: 1 ID: 0

Read mode : Secure
Utilize accurate stream : Yes
Defeat audio cache : Yes
Make use of C2 pointers : No

Read offset correction : 6
Overread into Lead-In and Lead-Out : No
Fill up missing offset samples with silence : Yes
Delete leading and trailing silent blocks : No
Null samples used in CRC calculations : Yes
Used interface : Native Win32 interface for Win NT & 2000

Used output format : User Defined Encoder
Selected bitrate : 128 kBit/s
Quality : High
Add ID3 tag : No
Command line compressor : C:\Program Files\Exact Audio Copy\Flac\flac.exe
Additional command line options : -V -8 -T "Date=%year%" -T "Genre=%genre%" %source%


TOC of the extracted CD

Track | Start | Length | Start sector | End sector
––––––––––––––––––––––––––––-
1 | 0:00.00 | 7:12.21 | 0 | 32420
2 | 7:12.21 | 5:08.73 | 32421 | 55593
3 | 12:21.19 | 1:27.63 | 55594 | 62181
4 | 13:49.07 | 2:31.27 | 62182 | 73533
5 | 16:20.34 | 3:49.21 | 73534 | 90729
6 | 20:09.55 | 2:54.58 | 90730 | 103837
7 | 23:04.38 | 5:55.17 | 103838 | 130479
8 | 28:59.55 | 4:38.51 | 130480 | 151380
9 | 33:38.31 | 2:20.54 | 151381 | 161934
10 | 35:59.10 | 2:48.70 | 161935 | 174604
11 | 38:48.05 | 2:10.51 | 174605 | 184405
12 | 40:58.56 | 1:13.67 | 184406 | 189947
13 | 42:12.48 | 4:53.04 | 189948 | 211926
14 | 47:05.52 | 3:04.39 | 211927 | 225765
15 | 50:10.16 | 3:15.43 | 225766 | 240433
16 | 53:25.59 | 3:20.22 | 240434 | 255455
17 | 56:46.06 | 6:23.46 | 255456 | 284226
18 | 63:09.52 | 5:58.65 | 284227 | 311141
19 | 69:08.42 | 2:15.06 | 311142 | 321272
20 | 71:23.48 | 3:49.06 | 321273 | 338453


Range status and errors

Selected range

Filename C:\ArlegZ\Nikolaus Harnoncourt - Mozart - Early Symphonies vol.1 (I).wav

Peak level 97.3 %
Extraction speed 2.2 X
Range quality 100.0 %
Test CRC 5249A6D9
Copy CRC 5249A6D9
Copy OK

No errors occurred


AccurateRip summary

Track 1 accurately ripped (confidence 30) [5F56199F] (AR v2)
Track 2 accurately ripped (confidence 30) [6E5AE09B] (AR v2)
Track 3 accurately ripped (confidence 30) [263D425F] (AR v2)
Track 4 accurately ripped (confidence 30) [31650FB1] (AR v2)
Track 5 accurately ripped (confidence 30) [9FD870BC] (AR v2)
Track 6 accurately ripped (confidence 30) [BB740122] (AR v2)
Track 7 accurately ripped (confidence 30) [F01B3A4C] (AR v2)
Track 8 accurately ripped (confidence 30) [2B94829E] (AR v2)
Track 9 accurately ripped (confidence 30) [C12EE38D] (AR v2)
Track 10 accurately ripped (confidence 30) [6542BA82] (AR v2)
Track 11 accurately ripped (confidence 30) [5127641A] (AR v2)
Track 12 accurately ripped (confidence 30) [86EBD463] (AR v2)
Track 13 accurately ripped (confidence 30) [FFF354D0] (AR v2)
Track 14 accurately ripped (confidence 30) [72AB45F1] (AR v2)
Track 15 accurately ripped (confidence 30) [78ADBDA9] (AR v2)
Track 16 accurately ripped (confidence 30) [1B853578] (AR v2)
Track 17 accurately ripped (confidence 30) [F499F2C6] (AR v2)
Track 18 accurately ripped (confidence 30) [289C436C] (AR v2)
Track 19 accurately ripped (confidence 30) [8BC27EB6] (AR v2)
Track 20 accurately ripped (confidence 30) [A480D328] (AR v2)

All tracks accurately ripped

End of status report

–– CUETools DB Plugin V2.1.6

[CTDB TOCID: okeG.ZeW0_p.9jwbDRH4tNqOBHI-] found
Submit result: okeG.ZeW0_p.9jwbDRH4tNqOBHI- has been confirmed
Track | CTDB Status
1 | (101/101) Accurately ripped
2 | (101/101) Accurately ripped
3 | (101/101) Accurately ripped
4 | (101/101) Accurately ripped
5 | (101/101) Accurately ripped
6 | (101/101) Accurately ripped
7 | (101/101) Accurately ripped
8 | (100/101) Accurately ripped
9 | (101/101) Accurately ripped
10 | (100/101) Accurately ripped
11 | (101/101) Accurately ripped
12 | (101/101) Accurately ripped
13 | (101/101) Accurately ripped
14 | (100/101) Accurately ripped
15 | (101/101) Accurately ripped
16 | (100/101) Accurately ripped
17 | (101/101) Accurately ripped
18 | (101/101) Accurately ripped
19 | (101/101) Accurately ripped
20 | ( 98/101) Accurately ripped


==== Log checksum 7FE7FBB6BEAC929093B7E6CE7DBE97212EDC9E65F7FB2B4E806D48DC9CD8682B ====


Exact Audio Copy V1.6 from 23. October 2020

EAC extraction logfile from 10. July 2021, 17:41

Nikolaus Harnoncourt, Concentus Musicus / Mozart - Early Symphonies CD2

Used drive : PIONEER DVD-RW DVR-218L Adapter: 1 ID: 0

Read mode : Secure
Utilize accurate stream : Yes
Defeat audio cache : Yes
Make use of C2 pointers : No

Read offset correction : 6
Overread into Lead-In and Lead-Out : No
Fill up missing offset samples with silence : Yes
Delete leading and trailing silent blocks : No
Null samples used in CRC calculations : Yes
Used interface : Native Win32 interface for Win NT & 2000

Used output format : User Defined Encoder
Selected bitrate : 128 kBit/s
Quality : High
Add ID3 tag : No
Command line compressor : C:\Program Files\Exact Audio Copy\Flac\flac.exe
Additional command line options : -V -8 -T "Date=%year%" -T "Genre=%genre%" %source%


TOC of the extracted CD

Track | Start | Length | Start sector | End sector
––––––––––––––––––––––––––––-
1 | 0:00.00 | 5:30.16 | 0 | 24765
2 | 5:30.16 | 6:45.56 | 24766 | 55196
3 | 12:15.72 | 2:20.39 | 55197 | 65735
4 | 14:36.36 | 2:35.57 | 65736 | 77417
5 | 17:12.18 | 2:08.49 | 77418 | 87066
6 | 19:20.67 | 3:51.72 | 87067 | 104463
7 | 23:12.64 | 2:40.54 | 104464 | 116517
8 | 25:53.43 | 2:16.25 | 116518 | 126742
9 | 28:09.68 | 3:31.26 | 126743 | 142593
10 | 31:41.19 | 3:07.72 | 142594 | 156690
11 | 34:49.16 | 3:56.66 | 156691 | 174456
12 | 38:46.07 | 4:40.66 | 174457 | 195522
13 | 43:26.73 | 2:25.53 | 195523 | 206450
14 | 45:52.51 | 4:06.71 | 206451 | 224971
15 | 49:59.47 | 3:27.16 | 224972 | 240512
16 | 53:26.63 | 3:24.07 | 240513 | 255819
17 | 56:50.70 | 3:59.18 | 255820 | 273762
18 | 60:50.13 | 2:36.57 | 273763 | 285519
19 | 63:26.70 | 1:55.03 | 285520 | 294147
20 | 65:21.73 | 3:17.23 | 294148 | 308945
21 | 68:39.21 | 4:52.42 | 308946 | 330887
22 | 73:31.63 | 2:35.34 | 330888 | 342546


Range status and errors

Selected range

Filename C:\ArlegZ\Nikolaus Harnoncourt - Mozart - Early Symphonies vol.1 (II).wav

Peak level 100.0 %
Extraction speed 2.2 X
Range quality 100.0 %
Test CRC 772EF7EC
Copy CRC 772EF7EC
Copy OK

No errors occurred


AccurateRip summary

Track 1 accurately ripped (confidence 31) [DC00EBDB] (AR v2)
Track 2 accurately ripped (confidence 32) [0406C9F8] (AR v2)
Track 3 accurately ripped (confidence 32) [247F28F9] (AR v2)
Track 4 accurately ripped (confidence 32) [201432CF] (AR v2)
Track 5 accurately ripped (confidence 32) [B750521B] (AR v2)
Track 6 accurately ripped (confidence 32) [8F89009E] (AR v2)
Track 7 accurately ripped (confidence 32) [44CDE5F3] (AR v2)
Track 8 accurately ripped (confidence 32) [8823F958] (AR v2)
Track 9 accurately ripped (confidence 32) [61F1B7DD] (AR v2)
Track 10 accurately ripped (confidence 32) [C473DAA9] (AR v2)
Track 11 accurately ripped (confidence 32) [009FCADC] (AR v2)
Track 12 accurately ripped (confidence 32) [3A9E39E1] (AR v2)
Track 13 accurately ripped (confidence 32) [38DD81EA] (AR v2)
Track 14 accurately ripped (confidence 32) [C7BE5B8D] (AR v2)
Track 15 accurately ripped (confidence 32) [F69585A8] (AR v2)
Track 16 accurately ripped (confidence 32) [4B091814] (AR v2)
Track 17 accurately ripped (confidence 32) [5451E585] (AR v2)
Track 18 accurately ripped (confidence 32) [78401E2F] (AR v2)
Track 19 accurately ripped (confidence 32) [4946E130] (AR v2)
Track 20 accurately ripped (confidence 32) [A39503BB] (AR v2)
Track 21 accurately ripped (confidence 32) [C41388EE] (AR v2)
Track 22 accurately ripped (confidence 32) [52D87CFD] (AR v2)

All tracks accurately ripped

End of status report

–– CUETools DB Plugin V2.1.6

[CTDB TOCID: 9uA2Ug4fk.E0V9a.WygvpaAm_pQ-] found
Submit result: 9uA2Ug4fk.E0V9a.WygvpaAm_pQ- has been confirmed
Track | CTDB Status
1 | (88/88) Accurately ripped
2 | (88/88) Accurately ripped
3 | (88/88) Accurately ripped
4 | (88/88) Accurately ripped
5 | (88/88) Accurately ripped
6 | (88/88) Accurately ripped
7 | (88/88) Accurately ripped
8 | (88/88) Accurately ripped
9 | (88/88) Accurately ripped
10 | (88/88) Accurately ripped
11 | (88/88) Accurately ripped
12 | (88/88) Accurately ripped
13 | (88/88) Accurately ripped
14 | (88/88) Accurately ripped
15 | (88/88) Accurately ripped
16 | (88/88) Accurately ripped
17 | (87/88) Accurately ripped
18 | (88/88) Accurately ripped
19 | (88/88) Accurately ripped
20 | (87/88) Accurately ripped
21 | (88/88) Accurately ripped
22 | (85/88) Accurately ripped


==== Log checksum 04CD92297460978619933E51494EC605F0B247F3398AE079E82F7A0FD7BF5E70 ====


Exact Audio Copy V1.6 from 23. October 2020

EAC extraction logfile from 10. July 2021, 19:01

Nikolaus Harnoncourt, Concentus musicus Wien / Mozart - Early Symphonies vol.2 (I)

Used drive : PIONEER DVD-RW DVR-218L Adapter: 1 ID: 0

Read mode : Secure
Utilize accurate stream : Yes
Defeat audio cache : Yes
Make use of C2 pointers : No

Read offset correction : 6
Overread into Lead-In and Lead-Out : No
Fill up missing offset samples with silence : Yes
Delete leading and trailing silent blocks : No
Null samples used in CRC calculations : Yes
Used interface : Native Win32 interface for Win NT & 2000

Used output format : User Defined Encoder
Selected bitrate : 128 kBit/s
Quality : High
Add ID3 tag : No
Command line compressor : C:\Program Files\Exact Audio Copy\Flac\flac.exe
Additional command line options : -V -8 -T "Date=%year%" -T "Genre=%genre%" %source%


TOC of the extracted CD

Track | Start | Length | Start sector | End sector
––––––––––––––––––––––––––––-
1 | 0:00.00 | 2:48.64 | 0 | 12663
2 | 2:48.64 | 2:34.27 | 12664 | 24240
3 | 5:23.16 | 2:37.29 | 24241 | 36044
4 | 8:00.45 | 1:31.53 | 36045 | 42922
5 | 9:32.23 | 1:58.53 | 42923 | 51825
6 | 11:31.01 | 3:53.58 | 51826 | 69358
7 | 15:24.59 | 2:58.07 | 69359 | 82715
8 | 18:22.66 | 3:35.68 | 82716 | 98908
9 | 21:58.59 | 3:47.36 | 98909 | 115969
10 | 25:46.20 | 1:38.36 | 115970 | 123355
11 | 27:24.56 | 4:45.23 | 123356 | 144753
12 | 32:10.04 | 3:16.21 | 144754 | 159474
13 | 35:26.25 | 2:14.10 | 159475 | 169534
14 | 37:40.35 | 2:15.27 | 169535 | 179686
15 | 39:55.62 | 3:24.13 | 179687 | 194999
16 | 43:20.00 | 3:32.30 | 195000 | 210929
17 | 46:52.30 | 4:48.35 | 210930 | 232564
18 | 51:40.65 | 2:38.64 | 232565 | 244478
19 | 54:19.54 | 5:56.69 | 244479 | 271247
20 | 60:16.48 | 4:06.23 | 271248 | 289720
21 | 64:22.71 | 3:48.15 | 289721 | 306835
22 | 68:11.11 | 2:00.55 | 306836 | 315890
23 | 70:11.66 | 3:53.43 | 315891 | 333408
24 | 74:05.34 | 1:28.20 | 333409 | 340028
25 | 75:33.54 | 1:10.24 | 340029 | 345302


Range status and errors

Selected range

Filename C:\ArlegZ\Nikolaus Harnoncourt - Mozart - Early Symphonies vol.2 (I).wav

Peak level 99.8 %
Extraction speed 2.1 X
Range quality 100.0 %
Test CRC 1DE45F46
Copy CRC 1DE45F46
Copy OK

No errors occurred


AccurateRip summary

Track 1 accurately ripped (confidence 29) [05359D05] (AR v2)
Track 2 accurately ripped (confidence 29) [95BB8050] (AR v2)
Track 3 accurately ripped (confidence 29) [267E975A] (AR v2)
Track 4 accurately ripped (confidence 29) [D4EA607B] (AR v2)
Track 5 accurately ripped (confidence 29) [1AB97703] (AR v2)
Track 6 accurately ripped (confidence 29) [9C7622AD] (AR v2)
Track 7 accurately ripped (confidence 29) [39F94D23] (AR v2)
Track 8 accurately ripped (confidence 29) [0FB87940] (AR v2)
Track 9 accurately ripped (confidence 29) [A377A440] (AR v2)
Track 10 accurately ripped (confidence 29) [E42BFD23] (AR v2)
Track 11 accurately ripped (confidence 29) [8E3B11AE] (AR v2)
Track 12 accurately ripped (confidence 29) [5F13BD1B] (AR v2)
Track 13 accurately ripped (confidence 29) [96B4F30C] (AR v2)
Track 14 accurately ripped (confidence 29) [40D589B7] (AR v2)
Track 15 accurately ripped (confidence 29) [B900C1B3] (AR v2)
Track 16 accurately ripped (confidence 29) [A5BC90C1] (AR v2)
Track 17 accurately ripped (confidence 29) [20847A73] (AR v2)
Track 18 accurately ripped (confidence 29) [DB68F0F5] (AR v2)
Track 19 accurately ripped (confidence 29) [4C0E2368] (AR v2)
Track 20 accurately ripped (confidence 29) [BCAADA2B] (AR v2)
Track 21 accurately ripped (confidence 28) [F9DA41E3] (AR v2)
Track 22 accurately ripped (confidence 28) [DE4B1E22] (AR v2)
Track 23 accurately ripped (confidence 28) [07523A90] (AR v2)
Track 24 accurately ripped (confidence 29) [9F34D0DA] (AR v2)
Track 25 accurately ripped (confidence 29) [95C14F39] (AR v2)

All tracks accurately ripped

End of status report

–– CUETools DB Plugin V2.1.6

[CTDB TOCID: QCCzsmUP636eAx7yY8of_P08nII-] found
Submit result: QCCzsmUP636eAx7yY8of_P08nII- has been confirmed
Track | CTDB Status
1 | (83/83) Accurately ripped
2 | (83/83) Accurately ripped
3 | (83/83) Accurately ripped
4 | (83/83) Accurately ripped
5 | (83/83) Accurately ripped
6 | (82/83) Accurately ripped
7 | (82/83) Accurately ripped
8 | (83/83) Accurately ripped
9 | (83/83) Accurately ripped
10 | (83/83) Accurately ripped
11 | (83/83) Accurately ripped
12 | (82/83) Accurately ripped
13 | (82/83) Accurately ripped
14 | (82/83) Accurately ripped
15 | (82/83) Accurately ripped
16 | (82/83) Accurately ripped
17 | (82/83) Accurately ripped
18 | (82/83) Accurately ripped
19 | (82/83) Accurately ripped
20 | (81/83) Accurately ripped
21 | (82/83) Accurately ripped
22 | (82/83) Accurately ripped
23 | (81/83) Accurately ripped
24 | (82/83) Accurately ripped
25 | (82/83) Accurately ripped


==== Log checksum 8F68AB137BDD8A9A53855BDA4FAB437743CD1EBB79942A280F846DEB54B2EED7 ====


Exact Audio Copy V1.6 from 23. October 2020

EAC extraction logfile from 10. July 2021, 20:14

Nikolaus Harnoncourt, Concentus Musicus / Mozart - Early Symphonies vol.2 (II)

Used drive : PIONEER DVD-RW DVR-218L Adapter: 1 ID: 0

Read mode : Secure
Utilize accurate stream : Yes
Defeat audio cache : Yes
Make use of C2 pointers : No

Read offset correction : 6
Overread into Lead-In and Lead-Out : No
Fill up missing offset samples with silence : Yes
Delete leading and trailing silent blocks : No
Null samples used in CRC calculations : Yes
Used interface : Native Win32 interface for Win NT & 2000

Used output format : User Defined Encoder
Selected bitrate : 128 kBit/s
Quality : High
Add ID3 tag : No
Command line compressor : C:\Program Files\Exact Audio Copy\Flac\flac.exe
Additional command line options : -V -8 -T "Date=%year%" -T "Genre=%genre%" %source%


TOC of the extracted CD

Track | Start | Length | Start sector | End sector
––––––––––––––––––––––––––––-
1 | 0:00.00 | 2:05.73 | 0 | 9447
2 | 2:05.73 | 4:21.32 | 9448 | 29054
3 | 6:27.30 | 3:31.43 | 29055 | 44922
4 | 9:58.73 | 3:13.31 | 44923 | 59428
5 | 13:12.29 | 5:39.11 | 59429 | 84864
6 | 18:51.40 | 4:33.27 | 84865 | 105366
7 | 23:24.67 | 2:28.13 | 105367 | 116479
8 | 25:53.05 | 2:12.17 | 116480 | 126396
9 | 28:05.22 | 7:41.58 | 126397 | 161029
10 | 35:47.05 | 4:43.50 | 161030 | 182304
11 | 40:30.55 | 3:41.25 | 182305 | 198904
12 | 44:12.05 | 4:38.06 | 198905 | 219760
13 | 48:50.11 | 5:19.12 | 219761 | 243697
14 | 54:09.23 | 4:20.39 | 243698 | 263236
15 | 58:29.62 | 2:15.62 | 263237 | 273423
16 | 60:45.49 | 2:08.11 | 273424 | 283034
17 | 62:53.60 | 7:07.63 | 283035 | 315122


Range status and errors

Selected range

Filename C:\ArlegZ\Nikolaus Harnoncourt - Mozart - Early Symphonies vol.2 (II).wav

Peak level 100.0 %
Extraction speed 2.1 X
Range quality 100.0 %
Test CRC 7D1F6361
Copy CRC 7D1F6361
Copy OK

No errors occurred


AccurateRip summary

Track 1 accurately ripped (confidence 29) [BC1F7709] (AR v2)
Track 2 accurately ripped (confidence 29) [3B0A0236] (AR v2)
Track 3 accurately ripped (confidence 29) [C08D38D9] (AR v2)
Track 4 accurately ripped (confidence 29) [460782DC] (AR v2)
Track 5 accurately ripped (confidence 29) [7BAB641D] (AR v2)
Track 6 accurately ripped (confidence 29) [3B573F9A] (AR v2)
Track 7 accurately ripped (confidence 29) [F7860455] (AR v2)
Track 8 accurately ripped (confidence 29) [EB76666F] (AR v2)
Track 9 accurately ripped (confidence 29) [544C604C] (AR v2)
Track 10 accurately ripped (confidence 29) [DA96111E] (AR v2)
Track 11 accurately ripped (confidence 29) [63D614D5] (AR v2)
Track 12 accurately ripped (confidence 29) [752C0CF4] (AR v2)
Track 13 accurately ripped (confidence 29) [5D93A016] (AR v2)
Track 14 accurately ripped (confidence 29) [CA6CAC19] (AR v2)
Track 15 accurately ripped (confidence 29) [98632D08] (AR v2)
Track 16 accurately ripped (confidence 29) [1DF3910B] (AR v2)
Track 17 accurately ripped (confidence 29) [3B52D810] (AR v2)

All tracks accurately ripped

End of status report

–– CUETools DB Plugin V2.1.6

[CTDB TOCID: GhMWX5lZNt1kgqFkHIto.oTb2JY-] found
Submit result: GhMWX5lZNt1kgqFkHIto.oTb2JY- has been confirmed
Track | CTDB Status
1 | (85/85) Accurately ripped
2 | (85/85) Accurately ripped
3 | (85/85) Accurately ripped
4 | (85/85) Accurately ripped
5 | (85/85) Accurately ripped
6 | (85/85) Accurately ripped
7 | (85/85) Accurately ripped
8 | (85/85) Accurately ripped
9 | (85/85) Accurately ripped
10 | (85/85) Accurately ripped
11 | (85/85) Accurately ripped
12 | (85/85) Accurately ripped
13 | (85/85) Accurately ripped
14 | (85/85) Accurately ripped
15 | (84/85) Accurately ripped
16 | (84/85) Accurately ripped
17 | (83/85) Accurately ripped


==== Log checksum 60C1CBB5A3B6B26D87378E36C870CFC275538496F484DDA8C421B4247C42B506 ====


Exact Audio Copy V1.6 from 23. October 2020

EAC extraction logfile from 11. July 2021, 17:08

Nikolaus Harnoncourt, Concentus musicus Wien / Mozart - Early Symphonies vol.3 (I)

Used drive : PIONEER DVD-RW DVR-218L Adapter: 1 ID: 0

Read mode : Secure
Utilize accurate stream : Yes
Defeat audio cache : Yes
Make use of C2 pointers : No

Read offset correction : 6
Overread into Lead-In and Lead-Out : No
Fill up missing offset samples with silence : Yes
Delete leading and trailing silent blocks : No
Null samples used in CRC calculations : Yes
Used interface : Native Win32 interface for Win NT & 2000

Used output format : User Defined Encoder
Selected bitrate : 128 kBit/s
Quality : High
Add ID3 tag : No
Command line compressor : C:\Program Files\Exact Audio Copy\Flac\flac.exe
Additional command line options : -V -8 -T "Date=%year%" -T "Genre=%genre%" %source%


TOC of the extracted CD

Track | Start | Length | Start sector | End sector
––––––––––––––––––––––––––––-
1 | 0:00.00 | 5:10.25 | 0 | 23274
2 | 5:10.25 | 4:27.35 | 23275 | 43334
3 | 9:37.60 | 4:18.12 | 43335 | 62696
4 | 13:55.72 | 4:49.51 | 62697 | 84422
5 | 18:45.48 | 4:04.60 | 84423 | 102782
6 | 22:50.33 | 3:08.42 | 102783 | 116924
7 | 25:59.00 | 5:44.39 | 116925 | 142763
8 | 31:43.39 | 6:52.52 | 142764 | 173715
9 | 38:36.16 | 2:41.45 | 173716 | 185835
10 | 41:17.61 | 7:14.13 | 185836 | 218398
11 | 48:31.74 | 4:05.58 | 218399 | 236831
12 | 52:37.57 | 10:25.07 | 236832 | 283713
13 | 63:02.64 | 3:50.48 | 283714 | 301011
14 | 66:53.37 | 4:02.11 | 301012 | 319172
15 | 70:55.48 | 2:42.61 | 319173 | 331383


Range status and errors

Selected range

Filename C:\ArlegZ\Nikolaus Harnoncourt - Mozart - Early Symphonies vol.3 (I).wav

Peak level 99.2 %
Extraction speed 2.1 X
Range quality 100.0 %
Test CRC B1884C70
Copy CRC B1884C70
Copy OK

No errors occurred


AccurateRip summary

Track 1 accurately ripped (confidence 30) [FE94133C] (AR v2)
Track 2 accurately ripped (confidence 30) [A0209361] (AR v2)
Track 3 accurately ripped (confidence 30) [D65EC114] (AR v2)
Track 4 accurately ripped (confidence 30) [2A3623D9] (AR v2)
Track 5 accurately ripped (confidence 30) [9BB47C4F] (AR v2)
Track 6 accurately ripped (confidence 30) [146D2E59] (AR v2)
Track 7 accurately ripped (confidence 30) [1F3AA26D] (AR v2)
Track 8 accurately ripped (confidence 30) [C9EA4F79] (AR v2)
Track 9 accurately ripped (confidence 30) [57B3E01E] (AR v2)
Track 10 accurately ripped (confidence 30) [9814DF73] (AR v2)
Track 11 accurately ripped (confidence 30) [9DA1355F] (AR v2)
Track 12 accurately ripped (confidence 30) [4F1E6326] (AR v2)
Track 13 accurately ripped (confidence 30) [A8F7BCF7] (AR v2)
Track 14 accurately ripped (confidence 30) [E0984E7B] (AR v2)
Track 15 accurately ripped (confidence 28) [A496DA16] (AR v2)

All tracks accurately ripped

End of status report

–– CUETools DB Plugin V2.1.6

[CTDB TOCID: bkphH6uDuPcA1cpa965dlGvAqqM-] found
Submit result: bkphH6uDuPcA1cpa965dlGvAqqM- has been confirmed
Track | CTDB Status
1 | (88/88) Accurately ripped
2 | (88/88) Accurately ripped
3 | (88/88) Accurately ripped
4 | (88/88) Accurately ripped
5 | (88/88) Accurately ripped
6 | (88/88) Accurately ripped
7 | (88/88) Accurately ripped
8 | (88/88) Accurately ripped
9 | (88/88) Accurately ripped
10 | (88/88) Accurately ripped
11 | (88/88) Accurately ripped
12 | (88/88) Accurately ripped
13 | (88/88) Accurately ripped
14 | (88/88) Accurately ripped
15 | (82/88) Accurately ripped


==== Log checksum 0935FF91B6A2F38AE76433E7A3E930A6520EADE651C5E255C9296CF7F89AB8BE ====


Exact Audio Copy V1.6 from 23. October 2020

EAC extraction logfile from 11. July 2021, 18:24

Nikolaus Harnoncourt, Concentus musicus Wien / Mozart - Early Symphonies vol.3 (II)

Used drive : PIONEER DVD-RW DVR-218L Adapter: 1 ID: 0

Read mode : Secure
Utilize accurate stream : Yes
Defeat audio cache : Yes
Make use of C2 pointers : No

Read offset correction : 6
Overread into Lead-In and Lead-Out : No
Fill up missing offset samples with silence : Yes
Delete leading and trailing silent blocks : No
Null samples used in CRC calculations : Yes
Used interface : Native Win32 interface for Win NT & 2000

Used output format : User Defined Encoder
Selected bitrate : 128 kBit/s
Quality : High
Add ID3 tag : No
Command line compressor : C:\Program Files\Exact Audio Copy\Flac\flac.exe
Additional command line options : -V -8 -T "Date=%year%" -T "Genre=%genre%" %source%


TOC of the extracted CD

Track | Start | Length | Start sector | End sector
––––––––––––––––––––––––––––-
1 | 0:00.00 | 10:43.70 | 0 | 48294
2 | 10:43.70 | 7:43.52 | 48295 | 83071
3 | 18:27.47 | 4:23.05 | 83072 | 102801
4 | 22:50.52 | 5:35.25 | 102802 | 127951
5 | 28:26.02 | 5:29.35 | 127952 | 152661
6 | 33:55.37 | 5:10.63 | 152662 | 175974
7 | 39:06.25 | 3:47.67 | 175975 | 193066
8 | 42:54.17 | 4:34.74 | 193067 | 213690
9 | 47:29.16 | 3:27.48 | 213691 | 229263
10 | 50:56.64 | 1:51.13 | 229264 | 237601
11 | 52:48.02 | 1:51.69 | 237602 | 245995
12 | 54:39.71 | 3:55.27 | 245996 | 263647
13 | 58:35.23 | 2:47.40 | 263648 | 276212
14 | 61:22.63 | 1:58.07 | 276213 | 285069
15 | 63:20.70 | 2:53.61 | 285070 | 298105
16 | 66:14.56 | 3:05.51 | 298106 | 312031
17 | 69:20.32 | 2:15.73 | 312032 | 322229


Range status and errors

Selected range

Filename C:\ArlegZ\Nikolaus Harnoncourt - Mozart - Early Symphonies vol.3 (II).wav

Peak level 98.8 %
Extraction speed 2.1 X
Range quality 99.9 %
Test CRC 517803AA
Copy CRC 517803AA
Copy OK

No errors occurred


AccurateRip summary

Track 1 accurately ripped (confidence 28) [4C026281] (AR v2)
Track 2 accurately ripped (confidence 28) [3A61867F] (AR v2)
Track 3 accurately ripped (confidence 28) [5B6D2DC9] (AR v2)
Track 4 accurately ripped (confidence 28) [61EE4376] (AR v2)
Track 5 accurately ripped (confidence 28) [4753C482] (AR v2)
Track 6 accurately ripped (confidence 28) [A3FE0AC9] (AR v2)
Track 7 accurately ripped (confidence 28) [871F4D80] (AR v2)
Track 8 accurately ripped (confidence 28) [894C7036] (AR v2)
Track 9 accurately ripped (confidence 28) [8C418A35] (AR v2)
Track 10 accurately ripped (confidence 28) [D5945A85] (AR v2)
Track 11 accurately ripped (confidence 28) [F1FCC136] (AR v2)
Track 12 accurately ripped (confidence 28) [F59A30B2] (AR v2)
Track 13 accurately ripped (confidence 28) [6B354E02] (AR v2)
Track 14 accurately ripped (confidence 28) [FB722BD3] (AR v2)
Track 15 accurately ripped (confidence 28) [701E4362] (AR v2)
Track 16 accurately ripped (confidence 28) [A6FDFB17] (AR v2)
Track 17 accurately ripped (confidence 28) [A9AD64C8] (AR v2)

All tracks accurately ripped

End of status report

–– CUETools DB Plugin V2.1.6

[CTDB TOCID: Hs_3HEuoCuXMsaWX5pyeZYHnyAU-] found
Submit result: Hs_3HEuoCuXMsaWX5pyeZYHnyAU- has been confirmed
Track | CTDB Status
1 | (90/90) Accurately ripped
2 | (90/90) Accurately ripped
3 | (90/90) Accurately ripped
4 | (90/90) Accurately ripped
5 | (90/90) Accurately ripped
6 | (90/90) Accurately ripped
7 | (90/90) Accurately ripped
8 | (90/90) Accurately ripped
9 | (90/90) Accurately ripped
10 | (89/90) Accurately ripped
11 | (90/90) Accurately ripped
12 | (89/90) Accurately ripped
13 | (90/90) Accurately ripped
14 | (90/90) Accurately ripped
15 | (90/90) Accurately ripped
16 | (90/90) Accurately ripped
17 | (90/90) Accurately ripped


==== Log checksum E1EF7414F33CA617C032BF42F8BF30C140D0247F4DF30D79CEA475050FE96B9C ====


Exact Audio Copy V1.6 from 23. October 2020

EAC extraction logfile from 11. July 2021, 19:57

Nikolaus Harnoncourt, Concentus Musicus Wien / Mozart - Early Symphonies vol.3 (III)

Used drive : PIONEER DVD-RW DVR-218L Adapter: 1 ID: 0

Read mode : Secure
Utilize accurate stream : Yes
Defeat audio cache : Yes
Make use of C2 pointers : No

Read offset correction : 6
Overread into Lead-In and Lead-Out : No
Fill up missing offset samples with silence : Yes
Delete leading and trailing silent blocks : No
Null samples used in CRC calculations : Yes
Used interface : Native Win32 interface for Win NT & 2000

Used output format : User Defined Encoder
Selected bitrate : 128 kBit/s
Quality : High
Add ID3 tag : No
Command line compressor : C:\Program Files\Exact Audio Copy\Flac\flac.exe
Additional command line options : -V -8 -T "Date=%year%" -T "Genre=%genre%" %source%


TOC of the extracted CD

Track | Start | Length | Start sector | End sector
––––––––––––––––––––––––––––-
1 | 0:00.00 | 6:42.40 | 0 | 30189
2 | 6:42.40 | 10:05.48 | 30190 | 75612
3 | 16:48.13 | 5:24.48 | 75613 | 99960
4 | 22:12.61 | 4:57.07 | 99961 | 122242
5 | 27:09.68 | 2:36.09 | 122243 | 133951
6 | 29:46.02 | 2:03.05 | 133952 | 143181
7 | 31:49.07 | 4:12.25 | 143182 | 162106
8 | 36:01.32 | 3:28.67 | 162107 | 177773
9 | 39:30.24 | 3:09.38 | 177774 | 191986
10 | 42:39.62 | 10:45.21 | 191987 | 240382
11 | 53:25.08 | 6:06.53 | 240383 | 267885
12 | 59:31.61 | 3:34.05 | 267886 | 283940
13 | 63:05.66 | 7:03.36 | 283941 | 315701
14 | 70:09.27 | 2:32.17 | 315702 | 327118
15 | 72:41.44 | 2:12.41 | 327119 | 337059
16 | 74:54.10 | 2:29.44 | 337060 | 348278


Range status and errors

Selected range

Filename C:\ArlegZ\Nikolaus Harnoncourt - Mozart - Early Symphonies vol.3 (III).wav

Peak level 98.5 %
Extraction speed 2.2 X
Range quality 100.0 %
Test CRC B3CE3F1C
Copy CRC B3CE3F1C
Copy OK

No errors occurred


AccurateRip summary

Track 1 accurately ripped (confidence 29) [99E124F0] (AR v2)
Track 2 accurately ripped (confidence 29) [3A2ADDDD] (AR v2)
Track 3 accurately ripped (confidence 29) [BB5904BE] (AR v2)
Track 4 accurately ripped (confidence 29) [E4BE8582] (AR v2)
Track 5 accurately ripped (confidence 29) [96C4AF2A] (AR v2)
Track 6 accurately ripped (confidence 29) [69618D5F] (AR v2)
Track 7 accurately ripped (confidence 29) [0EA3790C] (AR v2)
Track 8 accurately ripped (confidence 29) [4EC0BF67] (AR v2)
Track 9 accurately ripped (confidence 29) [3A97CDC0] (AR v2)
Track 10 accurately ripped (confidence 29) [DBAC1C3A] (AR v2)
Track 11 accurately ripped (confidence 29) [9A214A27] (AR v2)
Track 12 accurately ripped (confidence 29) [C903FD2B] (AR v2)
Track 13 accurately ripped (confidence 29) [0E183921] (AR v2)
Track 14 accurately ripped (confidence 29) [C7E1E9A5] (AR v2)
Track 15 accurately ripped (confidence 29) [E031B74E] (AR v2)
Track 16 accurately ripped (confidence 28) [5A0745A8] (AR v2)

All tracks accurately ripped

End of status report

–– CUETools DB Plugin V2.1.6

[CTDB TOCID: 8x3y8LKG5kDdeYK9SIjEZ0jvZJ0-] found
Submit result: 8x3y8LKG5kDdeYK9SIjEZ0jvZJ0- has been confirmed
Track | CTDB Status
1 | (88/88) Accurately ripped
2 | (88/88) Accurately ripped
3 | (88/88) Accurately ripped
4 | (88/88) Accurately ripped
5 | (88/88) Accurately ripped
6 | (88/88) Accurately ripped
7 | (88/88) Accurately ripped
8 | (88/88) Accurately ripped
9 | (88/88) Accurately ripped
10 | (88/88) Accurately ripped
11 | (88/88) Accurately ripped
12 | (88/88) Accurately ripped
13 | (88/88) Accurately ripped
14 | (88/88) Accurately ripped
15 | (88/88) Accurately ripped
16 | (87/88) Accurately ripped


==== Log checksum E48498D8C60DB3475C9624CD2CF23C6DCE4A4789AD4DCDB25FBE978ED1137D49 ====