Subcategories
Tags
Language
Tags

VA - Not Fade Away (Remembering Buddy Holly) (1996) Repost

Posted By: v3122
VA - Not Fade Away (Remembering Buddy Holly) (1996) Repost

VA - Not Fade Away (Remembering Buddy Holly) (1996)
EAC | Flac(Image) + Cue + Log & MP3 CBR 320Kbps
Decca, DRND-11260 | ~ 241 or 89 Mb | Scans(png) -> 64 Mb
Rock'n'Roll, Classic Rock

Not Fade Away (Remembering Buddy Holly) is a decidedly uneven tribute to the late, great rock & roller. Though it is clear the artists on the tribute are sincere in their affection for Holly, their covers add nothing to the original versions. Few of the selections attempt a reinterpretation of the song, and those that do aren't successful. When the cover is close to the original, it doesn't sound as fresh as Holly's version. Consequently, the best way to keep Holly's memory alive is to replay his records, not this collection.

by Stephen Thomas Erlewine, allmusic
VA - Not Fade Away (Remembering Buddy Holly) (1996):

VA - Not Fade Away (Remembering Buddy Holly) (1996) Repost

Tracklist:

[1] Buddy Holly, The Hollies - Peggy Sue Got Married [03:54]
[2] The Mavericks - True Love Ways [03:07]
[3] Nanci Griffiths, The Crickets - Well… All Right [02:16]
[4] Los Lobos - Midnight Shift [02:55]
[5] The Band, The Crickets - Not Fade Away [03:26]
[6] The Tractors - Think It Over [02:59]
[7] Mary Chapin Carpenter, Kevin Montgomery – Wishing [03:26]
[8] Joe Ely, Todd Snider - Oh Boy! [02:47]
[9] Mary Stuart, Steve Earle - Crying, Waiting, Hoping [03:53]
[10] Suzy Bogguss, Dave Edmunds - It Doesn't Matter Anymore [02:25]
[11] Nitty Gritty Dirt Band - Maybe Baby [02:49]
[12] Waylon Jennings, Mark Knopfler - Learning The Game [03:06]

Exact Audio Copy V1.0 beta 3 from 29. August 2011

EAC extraction logfile from 21. August 2014, 14:09

Various Artists / Not Fade Away (Remembering Buddy Holly)

Used drive : ASUS SDRW-08D1S-U Adapter: 1 ID: 0

Read mode : Secure
Utilize accurate stream : Yes
Defeat audio cache : Yes
Make use of C2 pointers : No

Read offset correction : 667
Overread into Lead-In and Lead-Out : No
Fill up missing offset samples with silence : Yes
Delete leading and trailing silent blocks : No
Null samples used in CRC calculations : Yes
Used interface : Native Win32 interface for Win NT & 2000

Used output format : User Defined Encoder
Selected bitrate : 128 kBit/s
Quality : High
Add ID3 tag : No
Command line compressor : C:\Program Files (x86)\Exact Audio Copy\Flac\flac.exe
Additional command line options : -V -8 -T "Date=%year%" -T "Genre=%genre%" %source%


TOC of the extracted CD

Track | Start | Length | Start sector | End sector
––––––––––––––––––––––––––––-
1 | 0:00.00 | 3:54.02 | 0 | 17551
2 | 3:54.02 | 3:07.65 | 17552 | 31641
3 | 7:01.67 | 2:16.23 | 31642 | 41864
4 | 9:18.15 | 2:55.47 | 41865 | 55036
5 | 12:13.62 | 3:26.10 | 55037 | 70496
6 | 15:39.72 | 2:59.58 | 70497 | 83979
7 | 18:39.55 | 3:26.70 | 83980 | 99499
8 | 22:06.50 | 2:47.55 | 99500 | 112079
9 | 24:54.30 | 3:53.02 | 112080 | 129556
10 | 28:47.32 | 2:25.48 | 129557 | 140479
11 | 31:13.05 | 2:49.07 | 140480 | 153161
12 | 34:02.12 | 3:06.05 | 153162 | 167116


Range status and errors

Selected range

Filename C:\Users\Олег\Desktop\Various Artists - Not Fade Away (Remembering Buddy Holly).wav

Peak level 95.8 %
Extraction speed 3.6 X
Range quality 100.0 %
Test CRC E3828C72
Copy CRC E3828C72
Copy OK

No errors occurred


AccurateRip summary

Track 1 accurately ripped (confidence 2) [746620BF] (AR v1)
Track 2 accurately ripped (confidence 2) [96D5715F] (AR v1)
Track 3 accurately ripped (confidence 2) [2D89BDB6] (AR v1)
Track 4 accurately ripped (confidence 2) [8293D808] (AR v1)
Track 5 accurately ripped (confidence 2) [FDA00C90] (AR v1)
Track 6 accurately ripped (confidence 2) [B7D4FDB9] (AR v1)
Track 7 accurately ripped (confidence 2) [5FF0B258] (AR v1)
Track 8 accurately ripped (confidence 2) [87DE18B0] (AR v1)
Track 9 accurately ripped (confidence 2) [CD182C4E] (AR v1)
Track 10 accurately ripped (confidence 2) [D4363078] (AR v1)
Track 11 accurately ripped (confidence 2) [A527058A] (AR v1)
Track 12 accurately ripped (confidence 2) [F31A95A2] (AR v1)

All tracks accurately ripped

End of status report

==== Log checksum 3155C86ECFA19CCD47B27EF8E8810DACBAC81DBC22840207A27FE6514EA1454B ====


[CUETools log; Date: 09.02.2018 8:43:12; Version: 2.1.5]
[AccurateRip ID: 0010d285-009c3e41-9708b40c] found.
Track [ CRC | V2 ] Status
01 [746620bf|a7d2e0bd] (2+4/6) Accurately ripped
02 [96d5715f|266ef4c5] (2+4/6) Accurately ripped
03 [2d89bdb6|2343deec] (2+3/5) Accurately ripped
04 [8293d808|b4e59978] (2+4/6) Accurately ripped
05 [fda00c90|45f8d601] (2+4/6) Accurately ripped
06 [b7d4fdb9|21a3e0ca] (2+4/6) Accurately ripped
07 [5ff0b258|1aec5a04] (2+4/6) Accurately ripped
08 [87de18b0|df3653c5] (2+4/6) Accurately ripped
09 [cd182c4e|9d3e21f0] (2+4/6) Accurately ripped
10 [d4363078|665f95e7] (2+4/6) Accurately ripped
11 [a527058a|dc58732e] (2+4/6) Accurately ripped
12 [f31a95a2|ae69bed3] (2+4/6) Accurately ripped

Track Peak [ CRC32 ] [W/O NULL] [ LOG ]
– 95,8 [E3828C72] [CFB5A0BC] CRC32
01 90,4 [66388E3E] [E42B0C20]
02 80,3 [929C24BB] [61774EA1]
03 90,4 [AF61DA72] [CB1C0D97]
04 95,6 [3845D916] [D9149802]
05 90,5 [2DAB44D4] [8A2D876E]
06 80,6 [60929293] [B6173588]
07 90,0 [08288568] [3AFBA807]
08 95,8 [7166A222] [8C7CE15E]
09 90,4 [B334F541] [D24C7E5A]
10 94,7 [42D42D59] [7FD5682E]
11 90,4 [41CF5977] [9D1694B6]
12 89,2 [949D755D] [5777BA07]


VA - Not Fade Away (Remembering Buddy Holly) (1996) Repost

All thanks go to the original releaser

Download VA - Not Fade Away (Remembering Buddy Holly) (1996):