Tags
Language
Tags

Nth Ascension - Stranger Than Fiction (2019)

Posted By: gribovar
Nth Ascension - Stranger Than Fiction (2019)

Nth Ascension - Stranger Than Fiction (2019)
EAC Rip | FLAC (image+.cue+log) - 503 MB | MP3 CBR 320 kbps (LAME 3.93) - 171 MB | Covers - 50 MB
Genre: Neo-Progressive Rock | RAR 3% Rec. | Label: Metatronic Records (NTH CD1)

This band hails from the UK and produces the kind of Neo-Prog that made the country proud back in the 1980s and 90s. The guys cite different references, with the likes of Marillion, Genesis, Yes, Sensational Alex Harvey Band, Rush, Dream Theater and Pink Floyd being mentioned, but they have taken all those elements and then built them into something which is very much of their own design. Musically this is highly arranged Neo-Prog which also straddles at times into melodic hard rock and symphonic prog, by a band who are determined people are not going to forget the "rock" side of the terminology.

Tracklist:
01. The Opening
02. True Identity
03. Fire in the Sky
04. Reconciled
05. The Gathering (Clanaan part VII)
06. Journey's End (Clanaan part VIII)
07. Lament (Clanaan part IX)
08. Sound to Light

Total time: 01:12:40

Exact Audio Copy V1.6 from 23. October 2020

EAC extraction logfile from 21. July 2021, 22:44

Nth Ascension / Stranger Than Fiction

Used drive : ASUS DRW-24B1LT Adapter: 1 ID: 2

Read mode : Secure
Utilize accurate stream : Yes
Defeat audio cache : Yes
Make use of C2 pointers : No

Read offset correction : 6
Overread into Lead-In and Lead-Out : No
Fill up missing offset samples with silence : Yes
Delete leading and trailing silent blocks : No
Null samples used in CRC calculations : Yes
Used interface : Native Win32 interface for Win NT & 2000

Used output format : User Defined Encoder
Selected bitrate : 1024 kBit/s
Quality : High
Add ID3 tag : No
Command line compressor : C:\Program Files (x86)\FLAC_1.3.3\Win64\flac.exe
Additional command line options : -6 -V -T "ARTIST=%artist%" -T "TITLE=%title%" -T "ALBUM=%albumtitle%" -T "DATE=%year%" -T "TRACKNUMBER=%tracknr%" -T "GENRE=%genre%" -T "COMMENT=ripped by wurensh for rutracker.org" %source% -o %dest%


TOC of the extracted CD

Track | Start | Length | Start sector | End sector
––––––––––––––––––––––––––––-
1 | 0:00.00 | 5:58.42 | 0 | 26891
2 | 5:58.42 | 5:25.60 | 26892 | 51326
3 | 11:24.27 | 7:50.64 | 51327 | 86640
4 | 19:15.16 | 10:26.41 | 86641 | 133631
5 | 29:41.57 | 7:16.37 | 133632 | 166368
6 | 36:58.19 | 15:48.43 | 166369 | 237511
7 | 52:46.62 | 1:39.35 | 237512 | 244971
8 | 54:26.22 | 18:13.60 | 244972 | 327006


Range status and errors

Selected range

Filename Y:\EAC\wurensh\Nth Ascension\Nth Ascension - Stranger Than Fiction.wav

Peak level 100.0 %
Extraction speed 9.4 X
Range quality 100.0 %
Test CRC 01031618
Copy CRC 01031618
Copy OK

No errors occurred


AccurateRip summary

Track 1 not present in database
Track 2 not present in database
Track 3 not present in database
Track 4 not present in database
Track 5 not present in database
Track 6 not present in database
Track 7 not present in database
Track 8 not present in database

None of the tracks are present in the AccurateRip database

End of status report

==== Log checksum 0485230D955EC6FCD3F321D4739DD0BF73B92716E856622C1C863231AE0A2BB5 ====

[CUETools log; Date: 01.08.2021 1:04:57; Version: 2.1.4]
[CTDB TOCID: km_0ox0bFg7v1yFgixpvJiQ3bzo-] found.
Track | CTDB Status
1 | (2/2) Accurately ripped
2 | (2/2) Accurately ripped
3 | (2/2) Accurately ripped
4 | (2/2) Accurately ripped
5 | (2/2) Accurately ripped
6 | (2/2) Accurately ripped
7 | (2/2) Accurately ripped
8 | (2/2) Accurately ripped
[AccurateRip ID: 001371f0-008610cf-6b110808] disk not present in database.

Track Peak [ CRC32 ] [W/O NULL] [ LOG ]
– 100,0 [01031618] [FDA3DDAA] CRC32
01 87,8 [3BCEA507] [B01555E0]
02 100,0 [2A78BBA6] [4C5CA06C]
03 100,0 [40C9BD12] [34A614A0]
04 100,0 [93A0D2CF] [E82E430C]
05 99,4 [FC6638A1] [9200E277]
06 100,0 [A9540CEF] [2B40FA07]
07 41,5 [E72E9903] [31E0F55F]
08 100,0 [44BEC324] [D30181DC]

Thanks to wurensh