Subcategories

O.V. Wright - Into Something (Can't Shake Loose) (1977) [Japanese Edition 2018]

Posted By: gribovar
O.V. Wright - Into Something (Can't Shake Loose) (1977) [Japanese Edition 2018]

O.V. Wright - Into Something (Can't Shake Loose) (1977) [Japanese Edition 2018]
EAC Rip | APE (image+.cue+log) - 222 MB | MP3 CBR 320 kbps (LAME 3.93) - 78 MB | Covers - 16 MB
Genre: Soul | RAR 3% Rec. | Label: Solid Records (CDSOL-5006)

O.V. Wright's secular career started off in 1964 with "That's How Strong My Love Is." It was written by Roosevelt Jamison initially responsible for discovering gospel group the Harmony Echoes, which brought forth both Wright and James "Dark End of the Street" Carr. Originally a B-side, it's included on this album as the closing third of a searing medley. And again, Wright's delivery proves to be in the same league as the more famous version by Otis Redding. Nothing much was gained though by Wright's association with the song. Redding's success awakened Backbeat owner Don Robey, who claimed Wright as his "property." Credits to all the artists' later recordings invariably mention a certain "D. Malone." Since it's the same Robey under a false name, it stands as a painful reminder of just how "protective" the label owner was. After a few short spells in jail for narcotic offenses during the mid-'70s, Wright re-emerged in 1977 with Into Something (Can't Shake Loose). It was his first album for Hi, although producer Willie Mitchell had overseen many of his Backbeat sides from the earlier days. For this comeback, the producer made sure Wright was supported by nothing but the best, from the Memphis Horns and Strings via the rhythm section of Grimes and all three Hodgeses to the background vocals of Rhodes-Chalmers-Rhodes. Even James Brown turned up for piano duties, but let's assume he's just a namesake. Obviously not as strong as the Hi albums Mitchell made with Al Green or Ann Peebles, it's still an example of genuine Southern soul.
Tracklist:
01. Into Something (Can't Shake Loose)
02. I Feel Love Growin'
03. Precious Precious
04. The Time We Have
05. You Gotta Have Love
06. Trying To Live My Life Without You
07. Medley:
God Blessed Our Love
When A Man Loves A Woman
That's How Strong My Love Is

Total time: 33:20

Exact Audio Copy V1.3 from 2. September 2016

EAC extraction logfile from 29. July 2020, 12:28

O. V. Wright / Into Something (Can't Shake Loose) (Japan, 2018)

Used drive : HL-DT-STDVDRAM GP08NU40 Adapter: 1 ID: 0

Read mode : Secure
Utilize accurate stream : Yes
Defeat audio cache : Yes
Make use of C2 pointers : No

Read offset correction : 667
Overread into Lead-In and Lead-Out : No
Fill up missing offset samples with silence : Yes
Delete leading and trailing silent blocks : No
Null samples used in CRC calculations : Yes
Used interface : Native Win32 interface for Win NT & 2000

Used output format : Internal WAV Routines
Sample format : 44.100 Hz; 16 Bit; Stereo


TOC of the extracted CD

Track | Start | Length | Start sector | End sector
––––––––––––––––––––––––––––-
1 | 0:00.00 | 4:24.26 | 0 | 19825
2 | 4:24.26 | 3:49.48 | 19826 | 37048
3 | 8:13.74 | 3:33.21 | 37049 | 53044
4 | 11:47.20 | 2:58.10 | 53045 | 66404
5 | 14:45.30 | 3:04.33 | 66405 | 80237
6 | 17:49.63 | 2:40.16 | 80238 | 92253
7 | 20:30.04 | 12:49.39 | 92254 | 149967


Range status and errors

Selected range

Filename C:\Users\Victor\Desktop\O. V. Wright - Into Something (Can't Shake Loose) (Japan, 2018).wav

Peak level 97.8 %
Extraction speed 4.2 X
Range quality 100.0 %
Copy CRC 30AD8139
Copy OK

No errors occurred

End of status report

–– CUETools DB Plugin V2.1.6

[CTDB TOCID: WmRZZl.PVmqOi6nt9FYaSLbN_bI-] found
Submit result: already submitted
Track | CTDB Status
1 | (5/5) Accurately ripped
2 | (5/5) Accurately ripped
3 | (5/5) Accurately ripped
4 | (5/5) Accurately ripped
5 | (5/5) Accurately ripped
6 | (5/5) Accurately ripped
7 | (4/5) Accurately ripped

[CUETools log; Date: 01.08.2020 16:25:21; Version: 2.1.4]
[CTDB TOCID: WmRZZl.PVmqOi6nt9FYaSLbN_bI-] found.
Track | CTDB Status
1 | (5/5) Accurately ripped
2 | (5/5) Accurately ripped
3 | (5/5) Accurately ripped
4 | (5/5) Accurately ripped
5 | (5/5) Accurately ripped
6 | (5/5) Accurately ripped
7 | (4/5) Accurately ripped
[AccurateRip ID: 00079c61-002e1c83-5a07cf07] found.
Track [ CRC | V2 ] Status
01 [f5b0d34e|71ed03b2] (0+1/1) Accurately ripped
02 [1c95f246|5e529c48] (0+1/1) Accurately ripped
03 [6a6008c5|d05c34cd] (0+1/1) Accurately ripped
04 [b6d1b4a8|4b7f7a04] (0+1/1) Accurately ripped
05 [4124f150|e6e1619e] (0+1/1) Accurately ripped
06 [9d61546d|23fc7966] (0+1/1) Accurately ripped
07 [8d1f2139|d88e75c3] (0+1/1) Accurately ripped

Track Peak [ CRC32 ] [W/O NULL] [ LOG ]
– 97,8 [30AD8139] [25809F1D] CRC32
01 97,8 [0B6C5B7B] [EC665815]
02 97,8 [CDA709B0] [EE9FCE82]
03 97,8 [50249506] [C468B556]
04 97,8 [1EBF40E6] [F4404C6E]
05 97,8 [D950A2FC] [F6A126D0]
06 97,8 [BCB74DCD] [6714F409]
07 97,8 [F7809FE4] [693D02CC]

Thanks to Squib84