Tags
Language
Tags

Obsidian Kingdom - A Year With No Summer (2016)

Posted By:
Obsidian Kingdom - A Year With No Summer (2016)

Obsidian Kingdom - A Year With No Summer (2016)
EAC Rip | FLAC (image+.cue+log) - 308 MB | MP3 CBR 320 kbps (LAME 3.93) - 112 MB | Covers - 205 MB
Genre: Progressive Metal, Post-Metal | RAR 3% Rec. | Label: Season Of Mist (SOM 379D)

Produced by the much sought after Jaime Gómez Arellano (Paradise Lost, Ghost) and featuring the stellar performances of Attila Csihar (Mayhem, Sunn O)))) and Kristoffer Rygg (Ulver), this album flirts elegantly with alternative rock, electronics and extreme metal to provide you with a full-bodied and unforgettable experience. A spiked cocktail of city spleen, conspiranoia and personal trauma; blue like the stagnant water in the pool of a marooned holiday resort and heavy like the silence after the next radiant apocalypse.
Obsidian Kingdom have been cunningly avoiding easy categorisation since their inception in the Catalan capital of Barcelona, Spain, where the band was formed in 2005. Their sophomore album 'A Year With No Summer' is now adding to the eclectic puzzle and a big step in an continuing evolution. To say that the Catalans move further away from their roots in extreme metal and towards a more progressive sound is equally correct as misleading. There are still burning guitars and harsh riffing to be found, yet there is also simply much more of everything else. Contrasts, shifts, and raw emotions created and guided by intricate rhythm patterns, electronic tapestries as well as highlights are combined into a carefully composed musical painting of monumental dimensions. There are hints of the epic approach offered by such influences as Pink Floyd and Marillion, yet Obsidian Kingdom use a far darker range of colours on their pallet. There is a constant sense of drowning, darkness and depression threading through 'A Year With No Summer', which binds the wide stylistic range offered by its diverse song material together.

Tracklist:
01. A Year With No Summer
02. 10th April
03. Darkness
04. The Kandinsky Group
05. The Polyarnik
06. Black Swan
07. Away / Absent

Total time: 47:41

Exact Audio Copy V1.1 from 23. June 2015

EAC extraction logfile from 24. March 2016, 3:00

Obsidian Kingdom / A Year With No Summer

Used drive : ASUS DRW-24B3ST Adapter: 1 ID: 0

Read mode : Secure
Utilize accurate stream : Yes
Defeat audio cache : Yes
Make use of C2 pointers : No

Read offset correction : 6
Overread into Lead-In and Lead-Out : No
Fill up missing offset samples with silence : Yes
Delete leading and trailing silent blocks : No
Null samples used in CRC calculations : Yes
Used interface : Native Win32 interface for Win NT & 2000

Used output format : User Defined Encoder
Selected bitrate : 768 kBit/s
Quality : High
Add ID3 tag : No
Command line compressor : C:\Program Files (x86)\Exact Audio Copy\FLAC\FLAC.EXE
Additional command line options : -6 -V -T "ARTIST=%artist%" -T "TITLE=%title%" -T "ALBUM=%albumtitle%" -T "DATE=%year%" -T "TRACKNUMBER=%tracknr%" -T "GENRE=%genre%" -T "COMMENT=%comment%" -T "BAND=%albuminterpret%" -T "ALBUMARTIST=%albuminterpret%" -T "COMPOSER=%composer%" %haslyrics%–tag-from-file=LYRICS="%lyricsfile%"%haslyrics% -T "DISCNUMBER=%cdnumber%" -T "TOTALDISCS=%totalcds%" -T "TOTALTRACKS=%numtracks%" %hascover%–picture="%coverfile%"%hascover% %source% -o %dest%


TOC of the extracted CD

Track | Start | Length | Start sector | End sector
––––––––––––––––––––––––––––-
1 | 0:00.00 | 6:25.17 | 0 | 28891
2 | 6:25.17 | 4:48.39 | 28892 | 50530
3 | 11:13.56 | 7:08.29 | 50531 | 82659
4 | 18:22.10 | 10:31.57 | 82660 | 130041
5 | 28:53.67 | 2:41.48 | 130042 | 142164
6 | 31:35.40 | 4:10.71 | 142165 | 160985
7 | 35:46.36 | 11:54.42 | 160986 | 214577


Range status and errors

Selected range

Filename D:\Obsidian Kingdom - A Year With No Summer.wav

Peak level 100.0 %
Extraction speed 5.6 X
Range quality 100.0 %
Test CRC D139BE36
Copy CRC D139BE36
Copy OK

No errors occurred


AccurateRip summary

Track 1 not present in database
Track 2 not present in database
Track 3 not present in database
Track 4 not present in database
Track 5 not present in database
Track 6 not present in database
Track 7 not present in database

None of the tracks are present in the AccurateRip database

End of status report

–– CUETools DB Plugin V2.1.6

[CTDB TOCID: teyWVeFwo_a1w3pRnt0dTOpw.Lw-] disk not present in database
Submit result: teyWVeFwo_a1w3pRnt0dTOpw.Lw- has been uploaded


==== Log checksum E075A3989D8F92E5D24FBCB1923C8197B4C03D0698F842174EFD27940D37E1F7 ====

[CUETools log; Date: 17.11.2017 14:32:37; Version: 2.1.4]
[CTDB TOCID: teyWVeFwo_a1w3pRnt0dTOpw.Lw-] found.
Track | CTDB Status
1 | (7/9) Accurately ripped
2 | (7/9) Accurately ripped
3 | (7/9) Accurately ripped
4 | (7/9) Accurately ripped
5 | (7/9) Accurately ripped
6 | (7/9) Accurately ripped
7 | (7/9) Accurately ripped
[AccurateRip ID: 000c5b7e-004a90d8-640b2d07] found.
Track [ CRC | V2 ] Status
01 [a40735a9|8c6847dc] (0+2/2) Accurately ripped
02 [69554964|d3e4c33a] (0+2/2) Accurately ripped
03 [e7d83355|9a7b0e32] (0+2/2) Accurately ripped
04 [bac9a1dc|522cc36f] (0+2/2) Accurately ripped
05 [8a11d030|caeed15b] (0+2/2) Accurately ripped
06 [173f9c3b|2ace21d2] (0+2/2) Accurately ripped
07 [f6069e1e|b65118ab] (0+2/2) Accurately ripped

Track Peak [ CRC32 ] [W/O NULL] [ LOG ]
– 100,0 [D139BE36] [A0A18DB9] CRC32
01 100,0 [CA9A9553] [50F80C4A]
02 98,0 [6A9C6C5E] [928DC3E3]
03 100,0 [E3011992] [D3DE4067]
04 100,0 [79F6818B] [31ACC868]
05 100,0 [CDA7C94B] [ECD4CB81]
06 100,0 [4585120D] [256C1C9F]
07 100,0 [EC285DC6] [557BB470]

Thanks to mekong