Subcategories

Evelino Pido, Orchestra of the Royal Opera House - Offenbach: Les Contes d'Hoffmann (2017) [BDRip]

Posted By: Vilboa
Evelino Pido, Orchestra of the Royal Opera House - Offenbach: Les Contes d'Hoffmann (2017) [BDRip]

Evelino Pidò, Orchestra of the Royal Opera House - Offenbach: Les Contes d'Hoffmann (2017) [BDRip]
BluRay-rip | AVC | MKV 1920x1080 / 6215 kbps / 29,97 fps | 169 min | 9,20 Gb
Audio: Français / DTS / 6ch / 48.0 KHz / 24 bits
Classical | Sony | Sub: French, English, German, Italian

The final revival of this well-loved production by John Schlesinger provided the perfect vehicle for Vittorio Grigòlo as Hoffmann to display his wonderful voice and masterful acting, surrounded by an exemplary supporting cast, including Sonya Yoncheva in the role of Antonia, and Thomas Hampson as Hoffmann’s arch rivals. The production at the Royal Opera House (November 2016) garnered very good reviews, especially for Vittorio Grigòlo.

Cast:
Hoffmann: Vittorio Grigòlo
VillaIns: Thomas Hampson
Nicklausse: Kate Lindsey
Antonia: Sonya Yoncheva
Giulietta:Christine Rice
Olympia: Sofia Formina
Royal Opera Chorus
Orchestra of the Royal Opera House
Conductor: Evelino Pidò


General
Unique ID : 227119943029436288787844505459558732570 (0xAADDB5BDA191DB7D95E8BC78004C531A)
Complete name : C:\Les Contes D'Hoffmann.mkv
Format : Matroska
Format version : Version 2
File size : 9.21 GiB
Duration : 2h 49mn
Overall bit rate : 7 769 Kbps
Movie name : Les Contes D'Hoffmann
Encoded date : UTC 2020-03-14 15:20:41
Writing application : DVDFab 9.1.6.8
Writing library : libebml v0.7.8 + libmatroska v0.8.1

Video
ID : 1
Format : AVC
Format/Info : Advanced Video Codec
Format profile : High@L4.1
Format settings, CABAC : Yes
Format settings, ReFrames : 2 frames
Codec ID : V_MPEG4/ISO/AVC
Duration : 2h 49mn
Bit rate : 6 215 Kbps
Width : 1 920 pixels
Height : 1 080 pixels
Display aspect ratio : 16:9
Frame rate mode : Constant
Frame rate : 29.970 fps
Color space : YUV
Chroma subsampling : 4:2:0
Bit depth : 8 bits
Scan type : Progressive
Bits/(Pixel*Frame) : 0.100
Stream size : 7.24 GiB (79%)
Writing library : x264 core 142
Encoding settings : cabac=1 / ref=1 / deblock=1:-1:-1 / analyse=0x3:0 / me=hex / subme=5 / psy=0 / mixed_ref=0 / me_range=16 / chroma_me=1 / trellis=0 / 8x8dct=1 / cqm=0 / deadzone=21,11 / fast_pskip=1 / chroma_qp_offset=0 / threads=8 / lookahead_threads=2 / sliced_threads=0 / nr=0 / decimate=1 / interlaced=0 / bluray_compat=0 / constrained_intra=0 / bframes=2 / b_pyramid=0 / b_adapt=1 / b_bias=0 / direct=1 / weightb=1 / open_gop=0 / weightp=0 / keyint=24 / keyint_min=13 / scenecut=40 / intra_refresh=0 / rc=abr / mbtree=0 / bitrate=6215 / ratetol=1.0 / qcomp=0.60 / qpmin=0 / qpmax=69 / qpstep=4 / ip_ratio=1.40 / pb_ratio=1.30 / aq=1:1.00
Default : Yes
Forced : No
Color primaries : BT.709
Transfer characteristics : BT.709
Matrix coefficients : BT.709
Color range : Limited

Audio
ID : 2
Format : DTS
Format/Info : Digital Theater Systems
Mode : 16
Format settings, Endianness : Big
Codec ID : A_DTS
Duration : 2h 49mn
Bit rate mode : Constant
Bit rate : 1 509 Kbps
Channel(s) : 6 channels
Channel positions : Front: L C R, Side: L R, LFE
Sampling rate : 48.0 KHz
Bit depth : 24 bits
Compression mode : Lossy
Stream size : 1.79 GiB (19%)
Language : French
Default : Yes
Forced : No

Text #1
ID : 3
Format : VobSub
Codec ID : S_VOBSUB
Codec ID/Info : The same subtitle format used on DVDs
Language : French
Default : Yes
Forced : No

Text #2
ID : 4
Format : VobSub
Codec ID : S_VOBSUB
Codec ID/Info : The same subtitle format used on DVDs
Language : English
Default : No
Forced : No

Text #3
ID : 5
Format : VobSub
Codec ID : S_VOBSUB
Codec ID/Info : The same subtitle format used on DVDs
Language : German
Default : No
Forced : No

Text #4
ID : 6
Format : VobSub
Codec ID : S_VOBSUB
Codec ID/Info : The same subtitle format used on DVDs
Language : Italian
Default : No
Forced : No

Menu
00:00:00.000 : en:Chapter 01
00:01:11.071 : en:Chapter 02
00:02:50.537 : en:Chapter 03
00:06:03.796 : en:Chapter 04
00:08:19.499 : en:Chapter 05
00:09:23.229 : en:Chapter 06
00:16:48.540 : en:Chapter 07
00:22:46.865 : en:Chapter 08
00:33:21.332 : en:Chapter 09
00:36:32.190 : en:Chapter 10
00:38:56.400 : en:Chapter 11
00:41:42.733 : en:Chapter 12
00:47:34.651 : en:Chapter 13
00:52:54.905 : en:Chapter 14
00:58:51.094 : en:Chapter 15
01:00:59.989 : en:Chapter 16
01:03:37.046 : en:Chapter 17
01:05:36.198 : en:Chapter 18
01:11:27.283 : en:Chapter 19
01:15:02.231 : en:Chapter 20
01:17:06.054 : en:Chapter 21
01:19:56.925 : en:Chapter 22
01:22:47.128 : en:Chapter 23
01:24:56.524 : en:Chapter 24
01:30:05.700 : en:Chapter 25
01:31:51.639 : en:Chapter 26
01:35:28.789 : en:Chapter 27
01:38:48.822 : en:Chapter 28
01:44:41.808 : en:Chapter 29
01:47:58.138 : en:Chapter 30
01:51:33.620 : en:Chapter 31
01:52:29.242 : en:Chapter 32
01:57:56.402 : en:Chapter 33
02:05:30.489 : en:Chapter 34
02:08:05.844 : en:Chapter 35
02:14:33.331 : en:Chapter 36
02:17:56.935 : en:Chapter 37
02:27:56.400 : en:Chapter 38
02:31:58.109 : en:Chapter 39
02:35:40.631 : en:Chapter 40
02:40:34.625 : en:Chapter 41
02:42:03.380 : en:Chapter 42
02:44:11.842 : en:Chapter 43

Evelino Pido, Orchestra of the Royal Opera House - Offenbach: Les Contes d'Hoffmann (2017) [BDRip]