Subcategories

Olaf Rupp, Michael Wertmuller - The Specter Of Genius (2009)

Posted By: v3122
Olaf Rupp, Michael Wertmuller - The Specter Of Genius (2009)

Olaf Rupp, Michael Wertmuller - The Specter Of Genius (2009)
EAC | Flac(Image) + Cue + Log & MP3 CBR 320Kbps
Jazzwerkstatt, JW 052 | ~ 395 or 144 Mb | Artwork -> 77 Mb
Free Jazz, Free Improvisation

~ Recorded by Rainer Robben at Studio Audiocue, Berlin & Studio für Elektroakustische Musik der Akademie der Künste, Berlin ~

Olaf Rupp, Michael Wertmuller - The Specter Of Genius (2009):

Olaf Rupp, Michael Wertmuller - The Specter Of Genius (2009)

Tracklist:

01. A_1
02. E_1
03. A_2
04. E_2
05. E_3
06. A_3
07. A_4
08. E_4
09. A_5
10. A_6
11. E_5
12. A_7
13. E_6
14. A_8
15. A_9
16. A_10

A - tracks were recorded by Rainer Robben at Studio Audiocue, Berlin
E - tracks were recorded at Studio für Elektroakustische Musik der Akademie der Künste, Berlin

Olaf Rupp - acoustic guitar (A), electric guitar (E)
Michael Wertmüller - drums


Exact Audio Copy V1.0 beta 2 from 29. April 2011

EAC extraction logfile from 15. July 2011, 15:14

Wertmьller - Rupp / The Specter Of Genius

Used drive : Optiarc DVD RW AD-7240S Adapter: 2 ID: 0

Read mode : Secure
Utilize accurate stream : Yes
Defeat audio cache : Yes
Make use of C2 pointers : No

Read offset correction : 48
Overread into Lead-In and Lead-Out : No
Fill up missing offset samples with silence : Yes
Delete leading and trailing silent blocks : No
Null samples used in CRC calculations : Yes
Used interface : Native Win32 interface for Win NT & 2000

Used output format : User Defined Encoder
Selected bitrate : 768 kBit/s
Quality : High
Add ID3 tag : No
Command line compressor : C:\Program Files\Exact Audio Copy\FLAC\FLAC.EXE
Additional command line options : -6 -V -T "ARTIST=%artist%" -T "TITLE=%title%" -T "ALBUM=%albumtitle%" -T "DATE=%year%" -T "TRACKNUMBER=%tracknr%" -T "GENRE=%genre%" -T "COMMENT=%comment%" -T "BAND=%albuminterpret%" -T "COMPOSER=%composer%" %haslyrics%–ta


TOC of the extracted CD

Track | Start | Length | Start sector | End sector
––––––––––––––––––––––––––––-
1 | 0:00.00 | 3:34.59 | 0 | 16108
2 | 3:34.59 | 2:26.47 | 16109 | 27105
3 | 6:01.31 | 4:33.63 | 27106 | 47643
4 | 10:35.19 | 5:01.09 | 47644 | 70227
5 | 15:36.28 | 2:02.50 | 70228 | 79427
6 | 17:39.03 | 3:14.43 | 79428 | 94020
7 | 20:53.46 | 2:07.25 | 94021 | 103570
8 | 23:00.71 | 8:37.26 | 103571 | 142371
9 | 31:38.22 | 4:57.01 | 142372 | 164647
10 | 36:35.23 | 0:34.69 | 164648 | 167266
11 | 37:10.17 | 2:13.22 | 167267 | 177263
12 | 39:23.39 | 7:41.11 | 177264 | 211849
13 | 47:04.50 | 3:22.51 | 211850 | 227050
14 | 50:27.26 | 5:02.39 | 227051 | 249739
15 | 55:29.65 | 2:49.40 | 249740 | 262454
16 | 58:19.30 | 2:50.26 | 262455 | 275230


Range status and errors

Selected range

Filename C:\Documents and Settings\User\Мои документы\Wertmьller - Rupp - The Specter Of Genius (2009)\Wertmьller - Rupp - The Specter Of Genius.wav

Peak level 99.7 %
Extraction speed 4.0 X
Range quality 100.0 %
Test CRC F9C451A8
Copy CRC F9C451A8
Copy OK

No errors occurred


AccurateRip summary

Track 1 accurately ripped (confidence 1) [48A4118A] (AR v1)
Track 2 accurately ripped (confidence 1) [9987B407] (AR v1)
Track 3 accurately ripped (confidence 1) [8C37DDB2] (AR v1)
Track 4 accurately ripped (confidence 1) [D05A2BAD] (AR v1)
Track 5 accurately ripped (confidence 1) [C306EAD6] (AR v1)
Track 6 accurately ripped (confidence 1) [748535A8] (AR v1)
Track 7 accurately ripped (confidence 1) [BF09A8FF] (AR v1)
Track 8 accurately ripped (confidence 1) [B9187C4F] (AR v1)
Track 9 accurately ripped (confidence 1) [13501D96] (AR v1)
Track 10 accurately ripped (confidence 1) [8E1D0796] (AR v1)
Track 11 accurately ripped (confidence 1) [8953C8D6] (AR v1)
Track 12 accurately ripped (confidence 1) [3721CD2C] (AR v1)
Track 13 accurately ripped (confidence 1) [6BE6512B] (AR v1)
Track 14 accurately ripped (confidence 1) [D5DA1D4E] (AR v1)
Track 15 accurately ripped (confidence 1) [65F46072] (AR v1)
Track 16 accurately ripped (confidence 1) [6AA9CCA8] (AR v1)

All tracks accurately ripped

End of status report

==== Log checksum 5A46AE0BC45708FE21AD3813C13EF460C14DCDE680FB7CEA3A2F5A0875CA0F8F ====


[CUETools log; Date: 14.02.2020 9:22:49; Version: 2.1.4]
[AccurateRip ID: 002356d1-01ac528c-c70e5510] found.
Track [ CRC | V2 ] Status
01 [48a4118a|f3a1293d] (1+0/1) Accurately ripped
02 [9987b407|aee4fb0e] (1+0/1) Accurately ripped
03 [8c37ddb2|86daeff1] (1+0/1) Accurately ripped
04 [d05a2bad|1e351e10] (1+0/1) Accurately ripped
05 [c306ead6|b34ef90e] (1+0/1) Accurately ripped
06 [748535a8|91a66933] (1+0/1) Accurately ripped
07 [bf09a8ff|70d742f7] (1+0/1) Accurately ripped
08 [b9187c4f|7de0f101] (1+0/1) Accurately ripped
09 [13501d96|9963c7c9] (1+0/1) Accurately ripped
10 [8e1d0796|c02b4df2] (1+0/1) Accurately ripped
11 [8953c8d6|51e95e83] (1+0/1) Accurately ripped
12 [3721cd2c|d18280da] (1+0/1) Accurately ripped
13 [6be6512b|f22f2016] (1+0/1) Accurately ripped
14 [d5da1d4e|0116f192] (1+0/1) Accurately ripped
15 [65f46072|b6ca62a9] (1+0/1) Accurately ripped
16 [6aa9cca8|37ec55f9] (1+0/1) Accurately ripped

Track Peak [ CRC32 ] [W/O NULL] [ LOG ]
– 99,7 [F9C451A8] [679F7D05] CRC32
01 98,5 [A8A61395] [596A8E02]
02 99,7 [3B616C0E] [83B21987]
03 98,4 [E838EC57] [88EF7915]
04 98,4 [48B7B030] [9AC5F711]
05 98,4 [A8236DA0] [7DEEE8C5]
06 98,4 [CFC01F6D] [A99C0CBB]
07 98,5 [8C21A141] [1684367F]
08 98,4 [04B1915B] [2F34C0E8]
09 98,5 [F0571B45] [836F7004]
10 98,4 [F85F895B] [1C7C16FC]
11 98,1 [637BC224] [09F82CE5]
12 99,2 [F24104BB] [F8E9BCD7]
13 98,4 [53239113] [1D416180]
14 98,4 [3D86BF11] [53F97B71]
15 98,4 [0EB51853] [37DAEC0E]
16 98,5 [0AA29B94] [01572C01]


Olaf Rupp, Michael Wertmuller - The Specter Of Genius (2009)

All thanks go to gssmg7

Olaf Rupp in my Blog

Download Olaf Rupp, Michael Wertmuller - The Specter Of Genius (2009):