Subcategories
Tags
Language
Tags

Omega - Testamentum (2020)

Posted By: gribovar
Omega - Testamentum (2020)

Omega - Testamentum (2020)
EAC Rip | FLAC (tracks+.cue+log) - 497 MB | MP3 CBR 320 kbps (LAME 3.93) - 155 MB | Covers - 43 MB
Genre: Symphonic Progressive Rock | RAR 3% Rec. | Label: Grund Records (GR174)

"Testamentum" is the 2020 conceptual farewell album by the legendary band from Hungary, which has been active since the early '60s in genres s.a. beat, psych and progressive heavy rock. Omega's (ex-)members Laszlo Benko and Tamas Mihaly as well as legendary sound engineer (and co-founder) Laszlo Nemes sadly passed away recently.

Tracklist:
01. A sötétség kapuja (Nyitány)
02. A Föld árnyékos oldalán
03. A lángoló huszadik század
04. Varázslatos, fehér kő
05. Mennyben az angyal
06. Huszadik századi városlakó
07. Jöjj, szabadító! (00:03:42)
08. Álom XXI. század (00:04:26)
09. A holló
10. A démon (Lilith)
11. Ideje a pontot kitenni
12. Hangyanép (Szörnyű porszemek)
13. Gloria Et Honor Deo
14. A látogató
15. Légy hű magadhoz!
16. Álomszínház
17. Halotti beszéd
18. Utolsó ítélet

Total time: 01:05:45

Exact Audio Copy V1.5 from 20. February 2020

EAC extraction logfile from 28. November 2020, 17:51

Omega / Testamentum

Used drive : PLEXTOR PX-891SAF PLUS Adapter: 1 ID: 0

Read mode : Secure
Utilize accurate stream : Yes
Defeat audio cache : Yes
Make use of C2 pointers : No

Read offset correction : 6
Overread into Lead-In and Lead-Out : No
Fill up missing offset samples with silence : Yes
Delete leading and trailing silent blocks : No
Null samples used in CRC calculations : Yes
Used interface : Native Win32 interface for Win NT & 2000
Gap handling : Appended to previous track

Used output format : User Defined Encoder
Selected bitrate : 1024 kBit/s
Quality : High
Add ID3 tag : No
Command line compressor : C:\Program Files (x86)\Exact Audio Copy\Flac\flac.exe
Additional command line options : -0 -V -T "ARTIST=%artist%" -T "TITLE=%title%" -T "ALBUM=%albumtitle%" -T "DATE=%year%" -T "TRACKNUMBER=%tracknr%" -T "TOTALTRACKS=%numtracks%" -T "GENRE=%genre%" -T "COMMENT=Naftamusic Release!" %source%


TOC of the extracted CD

Track | Start | Length | Start sector | End sector
––––––––––––––––––––––––––––-
1 | 0:00.00 | 2:18.13 | 0 | 10362
2 | 2:18.13 | 4:23.62 | 10363 | 30149
3 | 6:42.00 | 3:32.00 | 30150 | 46049
4 | 10:14.00 | 6:18.45 | 46050 | 74444
5 | 16:32.45 | 3:53.31 | 74445 | 91950
6 | 20:26.01 | 6:12.26 | 91951 | 119876
7 | 26:38.27 | 3:41.40 | 119877 | 136491
8 | 30:19.67 | 4:26.00 | 136492 | 156441
9 | 34:45.67 | 3:40.03 | 156442 | 172944
10 | 38:25.70 | 6:03.67 | 172945 | 200236
11 | 44:29.62 | 3:12.00 | 200237 | 214636
12 | 47:41.62 | 4:27.09 | 214637 | 234670
13 | 52:08.71 | 3:44.03 | 234671 | 251473
14 | 55:52.74 | 0:59.24 | 251474 | 255922
15 | 56:52.23 | 3:52.74 | 255923 | 273396
16 | 60:45.22 | 2:24.05 | 273397 | 284201
17 | 63:09.27 | 1:38.55 | 284202 | 291606
18 | 64:48.07 | 0:56.68 | 291607 | 295874


Track 1

Filename E:\Nafta Releases\Omega - Testamentum (2020)[FLAC] - Naftamusic\01 - A sötétség kapuja (Nyitány).wav

Pre-gap length 0:00:02.00

Peak level 98.7 %
Extraction speed 2.5 X
Track quality 100.0 %
Test CRC 0E1CE992
Copy CRC 0E1CE992
Track not present in AccurateRip database
Copy OK

Track 2

Filename E:\Nafta Releases\Omega - Testamentum (2020)[FLAC] - Naftamusic\02 - A Föld árnyékos oldalán.wav

Peak level 98.7 %
Extraction speed 3.0 X
Track quality 100.0 %
Test CRC B60AE5AF
Copy CRC B60AE5AF
Track not present in AccurateRip database
Copy OK

Track 3

Filename E:\Nafta Releases\Omega - Testamentum (2020)[FLAC] - Naftamusic\03 - A lángoló huszadik század.wav

Peak level 98.7 %
Extraction speed 3.2 X
Track quality 100.0 %
Test CRC B1C87F35
Copy CRC B1C87F35
Track not present in AccurateRip database
Copy OK

Track 4

Filename E:\Nafta Releases\Omega - Testamentum (2020)[FLAC] - Naftamusic\04 - Varázslatos, fehér kő.wav

Peak level 98.7 %
Extraction speed 3.8 X
Track quality 100.0 %
Test CRC C3748CC8
Copy CRC C3748CC8
Track not present in AccurateRip database
Copy OK

Track 5

Filename E:\Nafta Releases\Omega - Testamentum (2020)[FLAC] - Naftamusic\05 - Mennyben az angyal.wav

Peak level 98.7 %
Extraction speed 3.8 X
Track quality 100.0 %
Test CRC 6181708D
Copy CRC 6181708D
Track not present in AccurateRip database
Copy OK

Track 6

Filename E:\Nafta Releases\Omega - Testamentum (2020)[FLAC] - Naftamusic\06 - Huszadik századi városlakó.wav

Peak level 98.7 %
Extraction speed 4.3 X
Track quality 100.0 %
Test CRC 1B0D1ADB
Copy CRC 1B0D1ADB
Track not present in AccurateRip database
Copy OK

Track 7

Filename E:\Nafta Releases\Omega - Testamentum (2020)[FLAC] - Naftamusic\07 - Jöjj, szabadító!.wav

Peak level 98.7 %
Extraction speed 4.3 X
Track quality 100.0 %
Test CRC 9EA45178
Copy CRC 9EA45178
Track not present in AccurateRip database
Copy OK

Track 8

Filename E:\Nafta Releases\Omega - Testamentum (2020)[FLAC] - Naftamusic\08 - Álom XXI. század.wav

Peak level 98.7 %
Extraction speed 4.6 X
Track quality 100.0 %
Test CRC 9D367686
Copy CRC 9D367686
Track not present in AccurateRip database
Copy OK

Track 9

Filename E:\Nafta Releases\Omega - Testamentum (2020)[FLAC] - Naftamusic\09 - A holló.wav

Peak level 98.7 %
Extraction speed 4.7 X
Track quality 100.0 %
Test CRC 90C0B6B0
Copy CRC 90C0B6B0
Track not present in AccurateRip database
Copy OK

Track 10

Filename E:\Nafta Releases\Omega - Testamentum (2020)[FLAC] - Naftamusic\10 - A démon (Lilith).wav

Peak level 98.7 %
Extraction speed 4.4 X
Track quality 99.9 %
Test CRC B3E79061
Copy CRC B3E79061
Track not present in AccurateRip database
Copy OK

Track 11

Filename E:\Nafta Releases\Omega - Testamentum (2020)[FLAC] - Naftamusic\11 - Ideje a pontot kitenni.wav

Peak level 98.7 %
Extraction speed 5.0 X
Track quality 100.0 %
Test CRC 92165AFE
Copy CRC 92165AFE
Track not present in AccurateRip database
Copy OK

Track 12

Filename E:\Nafta Releases\Omega - Testamentum (2020)[FLAC] - Naftamusic\12 - Hangyanép (Szörnyű porszemek).wav

Peak level 98.7 %
Extraction speed 5.3 X
Track quality 100.0 %
Test CRC 1BB2203B
Copy CRC 1BB2203B
Track not present in AccurateRip database
Copy OK

Track 13

Filename E:\Nafta Releases\Omega - Testamentum (2020)[FLAC] - Naftamusic\13 - Gloria Et Honor Deo.wav

Peak level 98.7 %
Extraction speed 5.4 X
Track quality 100.0 %
Test CRC 2E20BB01
Copy CRC 2E20BB01
Track not present in AccurateRip database
Copy OK

Track 14

Filename E:\Nafta Releases\Omega - Testamentum (2020)[FLAC] - Naftamusic\14 - A látogató.wav

Peak level 98.7 %
Extraction speed 3.9 X
Track quality 100.0 %
Test CRC 3B35BD36
Copy CRC 3B35BD36
Track not present in AccurateRip database
Copy OK

Track 15

Filename E:\Nafta Releases\Omega - Testamentum (2020)[FLAC] - Naftamusic\15 - Légy hű magadhoz!.wav

Peak level 98.7 %
Extraction speed 5.5 X
Track quality 100.0 %
Test CRC 50FA89D3
Copy CRC 50FA89D3
Track not present in AccurateRip database
Copy OK

Track 16

Filename E:\Nafta Releases\Omega - Testamentum (2020)[FLAC] - Naftamusic\16 - Álomszínház.wav

Peak level 98.7 %
Extraction speed 3.7 X
Track quality 99.9 %
Test CRC EA416CEB
Copy CRC EA416CEB
Track not present in AccurateRip database
Copy OK

Track 17

Filename E:\Nafta Releases\Omega - Testamentum (2020)[FLAC] - Naftamusic\17 - Halotti beszéd.wav

Peak level 98.7 %
Extraction speed 4.9 X
Track quality 100.0 %
Test CRC B3BE4294
Copy CRC B3BE4294
Track not present in AccurateRip database
Copy OK

Track 18

Filename E:\Nafta Releases\Omega - Testamentum (2020)[FLAC] - Naftamusic\18 - Utolsó ítélet.wav

Peak level 71.5 %
Extraction speed 4.0 X
Track quality 100.0 %
Test CRC 0287D5BB
Copy CRC 0287D5BB
Track not present in AccurateRip database
Copy OK


None of the tracks are present in the AccurateRip database

No errors occurred

End of status report

==== Log checksum F8707E414BF43A33AA01531BEA528FE778AB401A22139E221E9549C14E1E29FB ====

[CUETools log; Date: 01.12.2020 17:01:12; Version: 2.1.4]
[CTDB TOCID: 1fjYSICrkALLgYXv.uSYHtNggwo-] found.
Track | CTDB Status
1 | (5/5) Accurately ripped
2 | (5/5) Accurately ripped
3 | (5/5) Accurately ripped
4 | (5/5) Accurately ripped
5 | (5/5) Accurately ripped
6 | (5/5) Accurately ripped
7 | (5/5) Accurately ripped
8 | (5/5) Accurately ripped
9 | (5/5) Accurately ripped
10 | (5/5) Accurately ripped
11 | (5/5) Accurately ripped
12 | (5/5) Accurately ripped
13 | (5/5) Accurately ripped
14 | (5/5) Accurately ripped
15 | (5/5) Accurately ripped
16 | (5/5) Accurately ripped
17 | (5/5) Accurately ripped
18 | (5/5) Accurately ripped
[AccurateRip ID: 002fec82-027a0adb-f00f6912] disk not present in database.

Track Peak [ CRC32 ] [W/O NULL] [ LOG ]
– 98,7 [7038F502] [C9B720FD]
01 98,7 [0E1CE992] [611E302B] CRC32
02 98,7 [B60AE5AF] [C2973BA2] CRC32
03 98,7 [B1C87F35] [64E5A0D8] CRC32
04 98,7 [C3748CC8] [386A161B] CRC32
05 98,7 [6181708D] [E3758A08] CRC32
06 98,7 [1B0D1ADB] [F6EC01DF] CRC32
07 98,7 [9EA45178] [C315FDE5] CRC32
08 98,7 [9D367686] [56DCEA38] CRC32
09 98,7 [90C0B6B0] [56ECC00C] CRC32
10 98,7 [B3E79061] [E753C0C4] CRC32
11 98,7 [92165AFE] [24A8EEA4] CRC32
12 98,7 [1BB2203B] [D4B8E86A] CRC32
13 98,7 [2E20BB01] [A774E6D6] CRC32
14 98,7 [3B35BD36] [FCDA49A4] CRC32
15 98,7 [50FA89D3] [81F13C51] CRC32
16 98,7 [EA416CEB] [07607069] CRC32
17 98,7 [B3BE4294] [46CCE5F2] CRC32
18 71,5 [0287D5BB] [ED9EABAB] CRC32

Thanks to the original releaser

See also:
Omega - Decades (2015) [4CD Box Set]