Tags
Language
Tags

Oscar Peterson - A Jazz Odyssey [Recorded 1950-1970] (2002) (Repost)

Posted By: gribovar
Oscar Peterson - A Jazz Odyssey [Recorded 1950-1970] (2002) (Repost)

Oscar Peterson - A Jazz Odyssey [Recorded 1950-1970] (2002)
EAC Rip | FLAC (image+.cue+log) - 320 MB | MP3 CBR 320 kbps (LAME 3.93) - 165 MB | Covers (4 MB) included
Genre: Jazz | RAR 3% Rec. | Label: Verve (314 589 780-2)

This 18-track selection of Oscar Peterson's work was assembled to coincide with the great pianist's autobiography. Centering on his most creative period, from 1950-1970, this compilation focuses intently on the years Peterson spent playing with Dizzy Gillespie, Ella Fitzgerald, Stan Getz, Billie Holiday, Coleman Hawkins, Lester Young, Roy Eldridge, Sweets Edison, and Max Roach, as well as establishing himself as a bandleader and soloist. Tracks such as "My Romance," "Get Happy," "Blue Moon," and "Pennies from Heaven'' are standards in Peterson's repertoire and showcase his sprightly, often dizzying right-hand machinations and his complex, often frighteningly difficult conception of harmonic architecture. In his fine swinging style, his read of "I Only Have Eyes for You," with Fitzgerald, is one of the true hallmarks of piano and vocal jazz. This is a fine place to start for anyone interested in discovering Peterson's contribution to the historical jazz canon.
Tracklist:
01. Get Happy
02. Just A-Sittin' And A-Rockin'
03. How About You?
04. When Lights Are Low
05. The Honeydripper
06. This Nearly Was Mine
07. L'Impossible
08. My Romance
09. Dancing On The Celling
10. I Only Have Eyes For You
11. Exactly Like You
12. Blue Moon
13. Pennies From Heaven
14. I'll Never Be The Same
15. Goody Goody
16. Mic's Jump
17. I Can't Give You Anything
18. Mumbles

Total time: 01:08:18

Exact Audio Copy V0.99 prebeta 4 from 23. January 2008

Отчёт EAC об извлечении, выполненном 18. апреля 2010, 15:43

Oscar Peterson / A Jazz Odyssey

Дисковод: ASUS DRW-2014L1T Adapter: 4 ID: 0

Режим чтения : Достоверность
Использование точного потока : Да
Отключение кэша аудио : Да
Использование указателей C2 : Нет

Коррекция смещения при чтении : 6
Способность читать области Lead-in и Lead-out : Нет
Заполнение пропущенных сэмплов тишиной : Да
Удаление блоков с тишиной в начале и конце : Нет
При вычислениях CRC использовались нулевые сэмплы : Да
Интерфейс : Установленный внешний ASPI-интерфейс

Выходной формат : Пользовательский кодировщик
Выбранный битрейт : 768 kBit/s
Качество : Высокий
Добавление ID3-тэга : Нет
Утилита сжатия : C:\Program Files\Exact Audio Copy\FLAC\FLAC.EXE
Дополнительные параметры : -8 -V %s


TOC извлечённого CD

Трек | Старт | Длительность | Начальный сектор | Конечный сектор
––––––––––––––––––––––––––––––––––-
1 | 0:00.00 | 2:31.13 | 0 | 11337
2 | 2:31.13 | 3:43.40 | 11338 | 28102
3 | 6:14.53 | 5:35.08 | 28103 | 53235
4 | 11:49.61 | 4:02.31 | 53236 | 71416
5 | 15:52.17 | 2:24.60 | 71417 | 82276
6 | 18:17.02 | 4:20.26 | 82277 | 101802
7 | 22:37.28 | 5:22.38 | 101803 | 125990
8 | 27:59.66 | 3:59.70 | 125991 | 143985
9 | 31:59.61 | 5:09.74 | 143986 | 167234
10 | 37:09.60 | 2:54.66 | 167235 | 180350
11 | 40:04.51 | 5:00.04 | 180351 | 202854
12 | 45:04.55 | 3:59.62 | 202855 | 220841
13 | 49:04.42 | 5:17.09 | 220842 | 244625
14 | 54:21.51 | 3:32.49 | 244626 | 260574
15 | 57:54.25 | 2:00.25 | 260575 | 269599
16 | 59:54.50 | 2:18.39 | 269600 | 279988
17 | 62:13.14 | 4:04.26 | 279989 | 298314
18 | 66:17.40 | 2:00.64 | 298315 | 307378


Характеристики диапазона извлечения и сообщения об ошибках

Выбранный диапазон

Имя файла C:\Users\Руслан\Desktop\Oscar Peterson - A Jazz Odyssey.wav

Пиковый уровень 100.0 %
Качество диапазона 100.0 %
CRC теста 5E88B86C
CRC копии 5E88B86C
Копирование… OK

Ошибок не произошло


AccurateRip: сводка

Трек 1 точное извлечение (доверие 4) [C2466C16]
Трек 2 точное извлечение (доверие 4) [853D3644]
Трек 3 точное извлечение (доверие 4) [ABB6F597]
Трек 4 точное извлечение (доверие 4) [3C2D5B1A]
Трек 5 точное извлечение (доверие 4) [F7139C32]
Трек 6 точное извлечение (доверие 4) [82896A5D]
Трек 7 точное извлечение (доверие 4) [DF434511]
Трек 8 точное извлечение (доверие 4) [19DE8AE4]
Трек 9 точное извлечение (доверие 4) [B2679AAC]
Трек 10 точное извлечение (доверие 4) [8F624FD9]
Трек 11 точное извлечение (доверие 3) [0135DC87]
Трек 12 точное извлечение (доверие 4) [8778CAAB]
Трек 13 точное извлечение (доверие 4) [E96675B7]
Трек 14 точное извлечение (доверие 4) [3C70397E]
Трек 15 точное извлечение (доверие 4) [2EDFBFD3]
Трек 16 точное извлечение (доверие 4) [31F29FAB]
Трек 17 точное извлечение (доверие 4) [CFCE8CEA]
Трек 18 точное извлечение (доверие 4) [9A3EB244]

Все треки извлечены точно

Конец отчёта

[CUETools log; Date: 11.08.2018 20:57:13; Version: 2.1.4]
[CTDB TOCID: NPGDNPz2.ch0GgwB2MZnghbFej4-] found.
Track | CTDB Status
1 | (32/32) Accurately ripped
2 | (32/32) Accurately ripped
3 | (32/32) Accurately ripped
4 | (32/32) Accurately ripped
5 | (32/32) Accurately ripped
6 | (32/32) Accurately ripped
7 | (32/32) Accurately ripped
8 | (32/32) Accurately ripped
9 | (32/32) Accurately ripped
10 | (31/32) Accurately ripped
11 | (30/32) Accurately ripped
12 | (32/32) Accurately ripped
13 | (31/32) Accurately ripped
14 | (32/32) Accurately ripped
15 | (31/32) Accurately ripped
16 | (32/32) Accurately ripped
17 | (29/32) Accurately ripped
18 | (30/32) Accurately ripped
[AccurateRip ID: 002e89be-026e0706-18100212] found.
Track [ CRC | V2 ] Status
01 [c2466c16|6271732c] (10+15/27) Accurately ripped
02 [853d3644|d397d290] (10+15/27) Accurately ripped
03 [abb6f597|1c4bb5e5] (10+14/26) Accurately ripped
04 [3c2d5b1a|8cbf63d6] (10+15/27) Accurately ripped
05 [f7139c32|70a1f821] (10+15/27) Accurately ripped
06 [82896a5d|cbfcbf38] (10+15/27) Accurately ripped
07 [df434511|fc959175] (10+15/27) Accurately ripped
08 [19de8ae4|699c47ed] (10+15/27) Accurately ripped
09 [b2679aac|1c3d3058] (10+14/26) Accurately ripped
10 [8f624fd9|b64a3861] (10+15/27) Accurately ripped
11 [0135dc87|e436503a] (09+14/25) Accurately ripped
12 [8778caab|bcdcbbcb] (09+15/26) Accurately ripped
13 [e96675b7|26b3da17] (10+14/26) Accurately ripped
14 [3c70397e|1b06fb4f] (10+14/26) Accurately ripped
15 [2edfbfd3|37da16ca] (10+14/26) Accurately ripped
16 [31f29fab|a61ab0a1] (10+14/26) Accurately ripped
17 [cfce8cea|ab64d47e] (10+13/25) Accurately ripped
18 [9a3eb244|518f94e5] (10+14/26) Accurately ripped
Offsetted by -18:
01 [07b1d068] (00/27) No match (V2 was not tested)
02 [73a834df] (00/27) No match (V2 was not tested)
03 [c9f30ebe] (00/26) No match (V2 was not tested)
04 [fdc1cd1f] (00/27) No match (V2 was not tested)
05 [40c2437e] (00/27) No match (V2 was not tested)
06 [f81242bb] (00/27) No match (V2 was not tested)
07 [308096f0] (00/27) No match (V2 was not tested)
08 [e71820e8] (00/27) No match (V2 was not tested)
09 [72e37ee9] (00/26) No match (V2 was not tested)
10 [777ad9ff] (00/27) No match (V2 was not tested)
11 [f0be41c3] (00/25) No match (V2 was not tested)
12 [8d7f7873] (00/26) No match (V2 was not tested)
13 [3132a6f9] (00/26) No match (V2 was not tested)
14 [e424ac26] (00/26) No match (V2 was not tested)
15 [01c81a73] (00/26) No match (V2 was not tested)
16 [51493ea3] (00/26) No match (V2 was not tested)
17 [c245ae8c] (00/25) No match (V2 was not tested)
18 [3d8a4cdc] (00/26) No match (V2 was not tested)

Track Peak [ CRC32 ] [W/O NULL] [ LOG ]
– 100,0 [5E88B86C] [DA9CB2FC] CRC32
01 100,0 [6960DC14] [43B80CDA]
02 99,9 [80447272] [F903F0D1]
03 99,9 [94F2B686] [371D866C]
04 99,9 [769CBC75] [D9430A92]
05 98,7 [7DE80BA8] [E8E72C86]
06 100,0 [DFFDFE37] [0948C8D0]
07 100,0 [7FCE5FF2] [A45BD1F6]
08 72,2 [093AE0E3] [AB2CB028]
09 99,9 [273CBC01] [373044F4]
10 100,0 [1804CE21] [F95ACF78]
11 100,0 [36E9269F] [5E16221E]
12 99,9 [2D70B65F] [2D4A095A]
13 100,0 [C4A3472F] [134DFDF0]
14 100,0 [9825120C] [03641398]
15 90,2 [861242CC] [B7F9CC96]
16 100,0 [6EF2A7B2] [C11553E5]
17 100,0 [A3B0C6DB] [3DE99D8E]
18 95,3 [3BFB1DD8] [458492FF]

Thanks to rusfed96

See also: