Tags
Language
Tags

Oscar Peterson - Oscar Peterson Jam - Montreux '77 (1977) [Reissue 1989]

Posted By: gribovar
Oscar Peterson - Oscar Peterson Jam - Montreux '77 (1977) [Reissue 1989]

Oscar Peterson - Oscar Peterson Jam - Montreux '77 (1977) [Reissue 1989]
EAC Rip | FLAC (image+.cue+log) - 329 MB | MP3 CBR 320 kbps (LAME 3.93) - 130 MB | Covers (9 MB) included
Genre: Jazz | RAR 3% Rec. | Label: Pablo Live (00025218637824)

One of many Pablo albums taken from the 1977 Montreux Jazz Festival, this outing teams pianist Oscar Peterson, bassist Niels Pedersen, and drummer Bobby Durham with tenorman Eddie "Lockjaw" Davis and trumpeters Clark Terry and Dizzy Gillespie. The talented (and very competitive) players really dig into the opening uptempo blues ("Ali and Frazier") and they continue cooking on "If I Were a Bell," "Bye Bye Blues," "Things Ain't What They Used to Be," and "Just in Time." As often happens in this type of situation, the musicians mutually inspire each other. This is one of Dizzy Gillespie's better sessions of the '70s; in fact, there are no losers during these battles.
Tracklist:
01. Ali And Frazier
02. If I Were A Bell
03. Things Ain't What They Used To Be
04. Just In Time
05. Bye Bye Blues

Total time: 51:30

Exact Audio Copy V0.99 prebeta 5 from 4. May 2009

Отчёт EAC об извлечении, выполненном 7. июня 2013, 0:24

Oscar Peterson / Oscar Peterson Jam - Montreux '77

Дисковод: Optiarc DVD RW AD-7173A Adapter: 3 ID: 0

Режим чтения : Достоверность
Использование точного потока : Да
Отключение кэша аудио : Да
Использование указателей C2 : Нет

Коррекция смещения при чтении : 48
Способность читать области Lead-in и Lead-out : Нет
Заполнение пропущенных сэмплов тишиной : Да
Удаление блоков с тишиной в начале и конце : Нет
При вычислениях CRC использовались нулевые сэмплы : Нет
Интерфейс : Установленный внешний ASPI-интерфейс

Выходной формат : Внутренние WAV-операции
Формат сэмплов : 44.100 Гц; 16 бит; стерео


TOC извлечённого CD

Трек | Старт | Длительность | Начальный сектор | Конечный сектор
––––––––––––––––––––––––––––––––––-
1 | 0:00.00 | 9:30.03 | 0 | 42752
2 | 9:30.03 | 10:48.00 | 42753 | 91352
3 | 20:18.03 | 13:01.65 | 91353 | 149992
4 | 33:19.68 | 9:56.37 | 149993 | 194729
5 | 43:16.30 | 8:13.40 | 194730 | 231744


Характеристики диапазона извлечения и сообщения об ошибках

Выбранный диапазон

Имя файла C:\Documents and Settings\DAce\Мои документы\Моя музыка\WAV\Oscar Peterson - Oscar Peterson Jam - Montreux '77.wav

Пиковый уровень 97.4 %
Качество диапазона 100.0 %
CRC теста 307C2D3E
CRC копии 307C2D3E
Копирование… OK

Ошибок не произошло


AccurateRip: сводка

Трек 1 нет в базе данных
Трек 2 нет в базе данных
Трек 3 нет в базе данных
Трек 4 нет в базе данных
Трек 5 нет в базе данных

Ни одного трека нет в базе AccurateRip

Конец отчёта

[CUETools log; Date: 11.05.2019 1:46:50; Version: 2.1.4]
[CTDB TOCID: xrYLtHUE0N0pmx_QPg39JDjEm_o-] found.
Track | CTDB Status
1 | (16/16) Accurately ripped
2 | (16/16) Accurately ripped
3 | (16/16) Accurately ripped
4 | (16/16) Accurately ripped
5 | (16/16) Accurately ripped
[AccurateRip ID: 000ad7ae-0032b70a-300c1105] found.
Track [ CRC | V2 ] Status
01 [8b045c87|8ec7b605] (0+6/6) Accurately ripped
02 [557716ae|ecf9d8a4] (0+6/6) Accurately ripped
03 [a4a5152f|5d8b73a6] (0+6/6) Accurately ripped
04 [71224d5f|7927178b] (0+6/6) Accurately ripped
05 [cebf00e1|9ee25570] (0+6/6) Accurately ripped

Track Peak [ CRC32 ] [W/O NULL] [ LOG ]
– 97,4 [9C07F0C6] [307C2D3E] W/O NULL
01 96,7 [B8232C09] [49231DC2]
02 79,8 [7934D67C] [5FF733A2]
03 97,4 [D73883D6] [5ACF1716]
04 96,6 [8DE27979] [105D3B74]
05 95,3 [7A272CB0] [61482CE3]

Thanks to the original releaser

See also:

Oscar Peterson - Songbooks Etcetera [10CD Box Set] (2005)
The Oscar Peterson Trio - A Jazz Portrait Of Frank Sinatra (1959)
Oscar Peterson - Plays The Jerome Kern Song Book (1959) [Reissue 2009]
Oscar Peterson - Oscar Peterso...ong Book (1959) [Reissue 1996]
Oscar Peterson Trio - West Side Story (1962) [DCC 24 KT Gold CD, 1994]
Oscar Peterson & Nelson Ri...n Riddle (1963) [Reissue 2009]
Oscar Peterson Trio - Oscar Pe...rk Terry (1964) [Reissue 2007]
Oscar Peterson - Blues Etude (1966) [Reissue 1990]
Oscar Peterson - Girl Talk (1968)
Oscar Peterson - Motions & Emotions (1969) [Reissue 2005]
Oscar Peterson & Dizzy Gil...illespie (1975) [Reissue 1987]
Ella Fitzgerald & Oscar Pe...nd Oscar (1976) [Reissue 2001]
Oscar Peterson & Count Bas...0;.Again (1978) [Reissue 2006]
Oscar Peterson - Digital At Montreux (1980)
Milt Jackson & Oscar Peter... Us Left (1981) [Reissue 2006]
Oscar Peterson + Stephane Grappelli - Skol (1982) [Reissue 1990]
Clark Terry, Freddie Hubbard, ...n - The Alternate Blues (1982)
Oscar Peterson - The Silver Collection [Recorded 1959-1963] (1984)
The Oscar Peterson Trio - Live And At Its Best (1990)
Oscar Peterson Trio - The Osca...Zardi's [Recorded 1955] (1994)
Oscar Peterson Trio with Ray Brown & Ed Thigpen - 1959 (1994)
Oscar Peterson - Oscar Peterso...(Verve Jazz Masters 37) (1994)
Oscar Peterson - 1945-1947 (1999)
Lionel Hampton With Oscar Peterson - Verve Jazz Masters 26 (1994)
Oscar Peterson, Ray Brown, Mil...: Live at the Blue Note (1999)
Oscar Peterson Trio - Complete...sions with Lester Young (2001)
Oscar Peterson - Stephane Grap...ol. 1-2 [Recorded 1973] (2001)
Oscar Peterson - Oscar's Ballads [Recorded 1990-2000] (2001)
Oscar Peterson - A Jazz Odyssey [Recorded 1950-1970] (2002)
Oscar Peterson - Ballads, Blue...1968-1971, 3CD Box Set] (2008)