Tags
Language
Tags

Oscar Peterson - The London Concert (1979) [Reissue 1993]

Posted By: gribovar
Oscar Peterson - The London Concert (1979) [Reissue 1993]

Oscar Peterson - The London Concert (1979) [Reissue 1993]
EAC Rip | FLAC (image+.cue+log) - 506 MB | MP3 CBR 320 kbps (LAME 3.93) - 225 MB | Covers (6 MB) included
Genre: Jazz | RAR 3% Rec. | Label: Pablo (00025218211123)

This two-CD set, which reissues a Pablo two-LP release, features pianist Oscar Peterson in a strong and supportive trio with bassist John Heard and drummer Louis Bellson. Although his sidemen get some solo space, the focus is primarily on the remarkable pianist on a variety of standards, his own "Hogtown Blues" and a six-song Duke Ellington medley. Whether it be on rapid stomps or sensitive ballads, this trio (which was in reality an all-star pickup group) sounds as if they had worked together regularly for years.
CD 1 Tracklist:
01. It's A Wonderful World
02. People
03. Ain't Misbehavin'
04. Jitterbug Waltz
05. Pennies From Heaven
06. I Get Along Without You Very Well
07. Sweet Georgia Brown

Total time: 48:26

CD 2 Tracklist:
01. Falling In Love With Love
02. Hogtown Blues
03. Emily (The Americanization Of Emily)
04. Satin Doll
05. Duke Ellington Medley:
I Got It Bad (And That Ain't Good)
Do Nothin' Till You Hear From Me
C-Jam Blues
Lush Life
Take The "A" Train
Caravan
06. Cute

Total time: 44:45

Exact Audio Copy V1.4 from 3. February 2020

EAC extraction logfile from 16. March 2020, 0:19

Oscar Peterson / The London Concert

Used drive : Optiarc BD ROM BC-5500H Adapter: 1 ID: 0

Read mode : Secure
Utilize accurate stream : Yes
Defeat audio cache : Yes
Make use of C2 pointers : No

Read offset correction : 48
Overread into Lead-In and Lead-Out : No
Fill up missing offset samples with silence : Yes
Delete leading and trailing silent blocks : No
Null samples used in CRC calculations : Yes
Used interface : Native Win32 interface for Win NT & 2000

Used output format : User Defined Encoder
Selected bitrate : 128 kBit/s
Quality : High
Add ID3 tag : No
Command line compressor : C:\Program Files (x86)\Exact Audio Copy\Flac\flac.exe
Additional command line options : -V -8 -T "Date=%year%" -T "Genre=%genre%" %source%


TOC of the extracted CD

Track | Start | Length | Start sector | End sector
––––––––––––––––––––––––––––-
1 | 0:00.00 | 6:51.62 | 0 | 30886
2 | 6:51.62 | 8:03.68 | 30887 | 67179
3 | 14:55.55 | 6:42.72 | 67180 | 97401
4 | 21:38.52 | 5:23.10 | 97402 | 121636
5 | 27:01.62 | 9:30.23 | 121637 | 164409
6 | 36:32.10 | 8:12.45 | 164410 | 201354


Range status and errors

Selected range

Filename C:\Temp\Oscar Peterson - The London Concert.wav

Peak level 100.0 %
Extraction speed 3.7 X
Range quality 100.0 %
Test CRC BE6A84DB
Copy CRC BE6A84DB
Copy OK

No errors occurred


AccurateRip summary

Track 1 accurately ripped (confidence 5) [2C33DDA1] (AR v2)
Track 2 accurately ripped (confidence 6) [7F87B6B3] (AR v2)
Track 3 accurately ripped (confidence 6) [F253251D] (AR v2)
Track 4 accurately ripped (confidence 6) [4D5258A0] (AR v2)
Track 5 accurately ripped (confidence 6) [2E2861EF] (AR v2)
Track 6 accurately ripped (confidence 5) [18D5B97E] (AR v2)

All tracks accurately ripped

End of status report

==== Log checksum E994CD207BE5FB374B9F10489889E2AB656D3C74F7617DC0BA48921D86399E70 ====

––––––––––––––––––––––––––––––

Exact Audio Copy V1.4 from 3. February 2020

EAC extraction logfile from 16. March 2020, 1:50

Oscar Peterson / The London Concert

Used drive : Optiarc BD ROM BC-5500H Adapter: 1 ID: 0

Read mode : Secure
Utilize accurate stream : Yes
Defeat audio cache : Yes
Make use of C2 pointers : No

Read offset correction : 48
Overread into Lead-In and Lead-Out : No
Fill up missing offset samples with silence : Yes
Delete leading and trailing silent blocks : No
Null samples used in CRC calculations : Yes
Used interface : Native Win32 interface for Win NT & 2000

Used output format : User Defined Encoder
Selected bitrate : 128 kBit/s
Quality : High
Add ID3 tag : No
Command line compressor : C:\Program Files (x86)\Exact Audio Copy\Flac\flac.exe
Additional command line options : -V -8 -T "Date=%year%" -T "Genre=%genre%" %source%


TOC of the extracted CD

Track | Start | Length | Start sector | End sector
––––––––––––––––––––––––––––-
1 | 0:00.00 | 5:33.17 | 0 | 24991
2 | 5:33.17 | 8:02.55 | 24992 | 61196
3 | 13:35.72 | 5:07.33 | 61197 | 84254
4 | 18:43.30 | 5:40.37 | 84255 | 109791
5 | 24:23.67 | 8:58.08 | 109792 | 150149
6 | 33:22.00 | 7:12.02 | 150150 | 182551
7 | 40:34.02 | 7:51.48 | 182552 | 217924


Range status and errors

Selected range

Filename C:\Temp\Oscar Peterson - The London Concert.wav

Peak level 100.0 %
Extraction speed 3.7 X
Range quality 99.9 %
Test CRC 9E8FD3A8
Copy CRC 9E8FD3A8
Copy OK

No errors occurred


AccurateRip summary

Track 1 accurately ripped (confidence 6) [14E12CF7] (AR v2)
Track 2 accurately ripped (confidence 6) [4BB5246B] (AR v2)
Track 3 accurately ripped (confidence 6) [36DD0B0D] (AR v2)
Track 4 accurately ripped (confidence 6) [2A20DDFC] (AR v2)
Track 5 accurately ripped (confidence 6) [E201A3B4] (AR v2)
Track 6 accurately ripped (confidence 6) [31FAA299] (AR v2)
Track 7 accurately ripped (confidence 6) [82B54E0E] (AR v2)

All tracks accurately ripped

End of status report

==== Log checksum 512BE8E918CE751DC9DB1809BA472FEE320F92404CDF7852BAE43225725D2896 ====

Thanks to Dе Metrio

See also:
Oscar Peterson - Songbooks Etcetera [10CD Box Set] (2005)
The Oscar Peterson Trio - At The Concertgebouw (1957) [Reissue 1994]
Oscar Peterson Trio - On The T...son Trio (1958) [Reissue 2001]
The Oscar Peterson Trio - A Jazz Portrait Of Frank Sinatra (1959)
Oscar Peterson - Plays The Jerome Kern Song Book (1959) [Reissue 2009]
Oscar Peterson - Oscar Peterso...ong Book (1959) [Reissue 1996]
Oscar Peterson Trio - West Side Story (1962) [DCC 24 KT Gold CD, 1994]
Oscar Peterson & Nelson Ri...n Riddle (1963) [Reissue 2009]
Oscar Peterson Trio - Oscar Pe...rk Terry (1964) [Reissue 2007]
Oscar Peterson - Blues Etude (1966) [Reissue 1990]
Oscar Peterson - Girl Talk (1968)
Oscar Peterson - Motions & Emotions (1969) [Reissue 2005]
Oscar Peterson & Dizzy Gil...illespie (1975) [Reissue 1987]
Ella Fitzgerald & Oscar Pe...nd Oscar (1976) [Reissue 2001]
Oscar Peterson - Oscar Peterso...reux '77 (1977) [Reissue 1989]
Oscar Peterson & Count Bas...0;.Again (1978) [Reissue 2006]
Oscar Peterson - Digital At Montreux (1980)
Milt Jackson & Oscar Peter... Us Left (1981) [Reissue 2006]
Oscar Peterson + Stephane Grappelli - Skol (1982) [Reissue 1990]
Clark Terry, Freddie Hubbard, ...n - The Alternate Blues (1982)
Oscar Peterson - The Silver Collection [Recorded 1959-1963] (1984)
The Oscar Peterson Trio - Live And At Its Best (1990)
Oscar Peterson Trio - The Osca...Zardi's [Recorded 1955] (1994)
Oscar Peterson Trio with Ray Brown & Ed Thigpen - 1959 (1994)
Oscar Peterson - Oscar Peterso...(Verve Jazz Masters 37) (1994)
Oscar Peterson - 1945-1947 (1999)
Lionel Hampton With Oscar Peterson - Verve Jazz Masters 26 (1994)
Oscar Peterson, Ray Brown, Mil...: Live at the Blue Note (1999)
Oscar Peterson Trio - Complete...sions with Lester Young (2001)
Oscar Peterson - Stephane Grap...ol. 1-2 [Recorded 1973] (2001)
Oscar Peterson - Oscar's Ballads [Recorded 1990-2000] (2001)
Oscar Peterson - A Jazz Odyssey [Recorded 1950-1970] (2002)
Oscar Peterson - Ballads, Blue...1968-1971, 3CD Box Set] (2008)