Tags
Language
Tags

Oscar Peterson Trio with Ray Brown & Ed Thigpen - 1959 (1994)

Posted By: gribovar
Oscar Peterson Trio with Ray Brown & Ed Thigpen - 1959 (1994)

Oscar Peterson Trio with Ray Brown & Ed Thigpen - 1959 (1994)
EAC Rip | FLAC (tracks+.cue+log) - 264 MB | Covers (7 MB) included
Genre: Jazz | RAR 3% Rec. | Label: Giants Of Jazz (CD 53190)

Oscar Emmanuel Peterson (15 August 1925-23 December 2007) was a Canadian jazz pianist, vocalist and composer. Originally from Montreal, Quebec, Peterson is said to be one of the most technically brilliant and melodically inventive jazz pianists of all time, with a career that lasted more than 65 years. Some of his musical associates have included Ray Brown, Ben Webster, Milt Jackson, Herb Ellis, Barney Kessel, Ed Thigpen, Niels-Henning Ørsted Pedersen, Louis Armstrong, Stéphane Grappelli, Ella Fitzgerald, Clark Terry, Joe Pass, Count Basie, and Stan Getz.
Tracklist:
01. All Of Me
02. Come Dance With Me
03. Learning The Blues
04. You Make Me Feel So Young
05. The Maids Of Cadiz (Maidens Of Cadiz)
06. The Birth Of The Blues
07. Witchcraft
08. How About You
09. Just In Time
10. Love For Sale
11. In The Still Of The Night
12. Just One Of Those Things
13. It's All Right With Me
14. Night And Day
15. Easy To Love
16. I Love Paris
17. I Concentrate On You
18. It's De-Lovely
19. The Tender Trap
20. I Get A Kick Out Of You

Total time: 01:00:46

Exact Audio Copy V1.0 beta 3 from 29. August 2011

EAC extraction logfile from 19. August 2013, 2:02

The Oscar Peterson Trio / Oscar Peterson Trio With Ray Brown & Ed Thigpen (1959)

Used drive : Optiarc DVD RW AD-7260S Adapter: 2 ID: 0

Read mode : Secure
Utilize accurate stream : Yes
Defeat audio cache : Yes
Make use of C2 pointers : No

Read offset correction : 48
Overread into Lead-In and Lead-Out : No
Fill up missing offset samples with silence : Yes
Delete leading and trailing silent blocks : No
Null samples used in CRC calculations : Yes
Used interface : Native Win32 interface for Win NT & 2000
Gap handling : Appended to previous track

Used output format : User Defined Encoder
Selected bitrate : 1024 kBit/s
Quality : High
Add ID3 tag : No
Command line compressor : C:\Program Files (x86)\Exact Audio Copy\Flac\flac.exe
Additional command line options : -8 -V -T "ARTIST=%artist%" -T "TITLE=%title%" -T "ALBUM=%albumtitle%" -T "DATE=%year%" -T "TRACKNUMBER=%tracknr%" -T "GENRE=%genre%" -T "PERFORMER=%albuminterpret%" -T "COMPOSER=%composer%" %haslyrics%–tag-from-file=LYRICS="%lyricsfile%"%haslyrics% -T "ALBUMARTIST=%albumartist%" -T "DISCNUMBER=%cdnumber%" -T "TOTALDISCS=%totalcds%" -T "TOTALTRACKS=%numtracks%" -T "COMMENT=%comment%" %source% -o %dest%


TOC of the extracted CD

Track | Start | Length | Start sector | End sector
––––––––––––––––––––––––––––-
1 | 0:00.00 | 3:22.60 | 0 | 15209
2 | 3:22.60 | 2:20.12 | 15210 | 25721
3 | 5:42.72 | 3:38.53 | 25722 | 42124
4 | 9:21.50 | 2:38.27 | 42125 | 54001
5 | 12:00.02 | 7:40.65 | 54002 | 88566
6 | 19:40.67 | 2:34.70 | 88567 | 100186
7 | 22:15.62 | 3:10.15 | 100187 | 114451
8 | 25:26.02 | 3:12.08 | 114452 | 128859
9 | 28:38.10 | 1:51.55 | 128860 | 137239
10 | 30:29.65 | 3:28.30 | 137240 | 152869
11 | 33:58.20 | 2:50.45 | 152870 | 165664
12 | 36:48.65 | 2:22.52 | 165665 | 176366
13 | 39:11.42 | 2:52.55 | 176367 | 189321
14 | 42:04.22 | 2:31.60 | 189322 | 200706
15 | 44:36.07 | 2:35.18 | 200707 | 212349
16 | 47:11.25 | 2:10.22 | 212350 | 222121
17 | 49:21.47 | 3:09.03 | 222122 | 236299
18 | 52:30.50 | 2:29.67 | 236300 | 247541
19 | 55:00.42 | 2:43.20 | 247542 | 259786
20 | 57:43.62 | 3:01.58 | 259787 | 273419


Track 1

Filename F:\Muzika\upload what\Oscar Peterson\Oscar Peterson Trio With Ray Brown & Ed Thigpen\01 All of Me.wav

Pre-gap length 0:00:02.00

Peak level 62.9 %
Extraction speed 2.2 X
Track quality 100.0 %
Test CRC B24D5AF2
Copy CRC B24D5AF2
Accurately ripped (confidence 2) [64EFBFE1] (AR v1)
Copy OK

Track 2

Filename F:\Muzika\upload what\Oscar Peterson\Oscar Peterson Trio With Ray Brown & Ed Thigpen\02 Come Dance With Me.wav

Peak level 75.0 %
Extraction speed 2.3 X
Track quality 100.0 %
Test CRC C22215BA
Copy CRC C22215BA
Accurately ripped (confidence 2) [7D96241C] (AR v1)
Copy OK

Track 3

Filename F:\Muzika\upload what\Oscar Peterson\Oscar Peterson Trio With Ray Brown & Ed Thigpen\03 Learning the Blues.wav

Peak level 73.4 %
Extraction speed 2.6 X
Track quality 100.0 %
Test CRC 79368362
Copy CRC 79368362
Accurately ripped (confidence 2) [91AFBD0E] (AR v1)
Copy OK

Track 4

Filename F:\Muzika\upload what\Oscar Peterson\Oscar Peterson Trio With Ray Brown & Ed Thigpen\04 You Make Me Feel So Young.wav

Peak level 75.1 %
Extraction speed 2.3 X
Track quality 99.9 %
Test CRC 725A0F43
Copy CRC 725A0F43
Accurately ripped (confidence 2) [91E1572B] (AR v1)
Copy OK

Track 5

Filename F:\Muzika\upload what\Oscar Peterson\Oscar Peterson Trio With Ray Brown & Ed Thigpen\05 The Maids of Cadiz (Maidens of Cadiz).wav

Peak level 86.2 %
Extraction speed 3.4 X
Track quality 100.0 %
Test CRC 766D0160
Copy CRC 766D0160
Accurately ripped (confidence 2) [657B189A] (AR v1)
Copy OK

Track 6

Filename F:\Muzika\upload what\Oscar Peterson\Oscar Peterson Trio With Ray Brown & Ed Thigpen\06 The Birth of the Blues.wav

Peak level 74.7 %
Extraction speed 3.1 X
Track quality 100.0 %
Test CRC A2C6F96D
Copy CRC A2C6F96D
Accurately ripped (confidence 2) [97232A37] (AR v1)
Copy OK

Track 7

Filename F:\Muzika\upload what\Oscar Peterson\Oscar Peterson Trio With Ray Brown & Ed Thigpen\07 Witchcraft.wav

Peak level 67.7 %
Extraction speed 2.9 X
Track quality 99.9 %
Test CRC 002B8921
Copy CRC 002B8921
Accurately ripped (confidence 2) [546AE7B1] (AR v1)
Copy OK

Track 8

Filename F:\Muzika\upload what\Oscar Peterson\Oscar Peterson Trio With Ray Brown & Ed Thigpen\08 How About You.wav

Peak level 79.6 %
Extraction speed 3.5 X
Track quality 100.0 %
Test CRC B28F35A3
Copy CRC B28F35A3
Accurately ripped (confidence 2) [C996B4D5] (AR v1)
Copy OK

Track 9

Filename F:\Muzika\upload what\Oscar Peterson\Oscar Peterson Trio With Ray Brown & Ed Thigpen\09 Just in Time.wav

Peak level 66.9 %
Extraction speed 3.3 X
Track quality 100.0 %
Test CRC 50179D2A
Copy CRC 50179D2A
Accurately ripped (confidence 2) [FE42299D] (AR v1)
Copy OK

Track 10

Filename F:\Muzika\upload what\Oscar Peterson\Oscar Peterson Trio With Ray Brown & Ed Thigpen\10 Love for Sale.wav

Peak level 68.3 %
Extraction speed 3.7 X
Track quality 100.0 %
Test CRC CC6C056D
Copy CRC CC6C056D
Accurately ripped (confidence 2) [1D81CFD1] (AR v1)
Copy OK

Track 11

Filename F:\Muzika\upload what\Oscar Peterson\Oscar Peterson Trio With Ray Brown & Ed Thigpen\11 In the Still of the Night.wav

Peak level 73.7 %
Extraction speed 3.7 X
Track quality 100.0 %
Test CRC 46DEB8FC
Copy CRC 46DEB8FC
Accurately ripped (confidence 2) [92589186] (AR v1)
Copy OK

Track 12

Filename F:\Muzika\upload what\Oscar Peterson\Oscar Peterson Trio With Ray Brown & Ed Thigpen\12 Just One of Those Things.wav

Peak level 67.1 %
Extraction speed 3.7 X
Track quality 100.0 %
Test CRC FA607DDE
Copy CRC FA607DDE
Accurately ripped (confidence 2) [01F046A6] (AR v1)
Copy OK

Track 13

Filename F:\Muzika\upload what\Oscar Peterson\Oscar Peterson Trio With Ray Brown & Ed Thigpen\13 It's All Right With Me.wav

Peak level 77.7 %
Extraction speed 4.0 X
Track quality 100.0 %
Test CRC E213E288
Copy CRC E213E288
Accurately ripped (confidence 2) [06944C4A] (AR v1)
Copy OK

Track 14

Filename F:\Muzika\upload what\Oscar Peterson\Oscar Peterson Trio With Ray Brown & Ed Thigpen\14 Night and Day.wav

Peak level 70.0 %
Extraction speed 4.0 X
Track quality 100.0 %
Test CRC DB047226
Copy CRC DB047226
Accurately ripped (confidence 2) [715B1C8F] (AR v1)
Copy OK

Track 15

Filename F:\Muzika\upload what\Oscar Peterson\Oscar Peterson Trio With Ray Brown & Ed Thigpen\15 Easy to Love.wav

Peak level 65.7 %
Extraction speed 4.0 X
Track quality 100.0 %
Test CRC 9458BDA3
Copy CRC 9458BDA3
Track not present in AccurateRip database
Copy OK

Track 16

Filename F:\Muzika\upload what\Oscar Peterson\Oscar Peterson Trio With Ray Brown & Ed Thigpen\16 I Love Paris.wav

Peak level 78.0 %
Extraction speed 4.0 X
Track quality 100.0 %
Test CRC F8459C2F
Copy CRC F8459C2F
Accurately ripped (confidence 2) [257BF831] (AR v1)
Copy OK

Track 17

Filename F:\Muzika\upload what\Oscar Peterson\Oscar Peterson Trio With Ray Brown & Ed Thigpen\17 I Concentrate on You.wav

Peak level 68.5 %
Extraction speed 4.3 X
Track quality 100.0 %
Test CRC 8910E8EB
Copy CRC 8910E8EB
Track not present in AccurateRip database
Copy OK

Track 18

Filename F:\Muzika\upload what\Oscar Peterson\Oscar Peterson Trio With Ray Brown & Ed Thigpen\18 It's De-Lovely.wav

Peak level 67.4 %
Extraction speed 4.2 X
Track quality 100.0 %
Test CRC F3BB4017
Copy CRC F3BB4017
Accurately ripped (confidence 2) [1431AAF2] (AR v1)
Copy OK

Track 19

Filename F:\Muzika\upload what\Oscar Peterson\Oscar Peterson Trio With Ray Brown & Ed Thigpen\19 The Tender Trap.wav

Peak level 71.1 %
Extraction speed 4.3 X
Track quality 100.0 %
Test CRC D88D66FA
Copy CRC D88D66FA
Accurately ripped (confidence 2) [7083CBB4] (AR v1)
Copy OK

Track 20

Filename F:\Muzika\upload what\Oscar Peterson\Oscar Peterson Trio With Ray Brown & Ed Thigpen\20 I Get a Kick Out of You.wav

Peak level 67.8 %
Extraction speed 4.5 X
Track quality 100.0 %
Test CRC 368B5A08
Copy CRC 368B5A08
Accurately ripped (confidence 2) [6C162AFC] (AR v1)
Copy OK


18 track(s) accurately ripped
2 track(s) not present in the AccurateRip database

Some tracks could not be verified as accurate

No errors occurred

End of status report

–– CUETools DB Plugin V2.1.4

[CTDB TOCID: Fw1IouJtYrL3szNhEkxco_Kg30E-] found
Submit result: Fw1IouJtYrL3szNhEkxco_Kg30E- has been confirmed
Track | CTDB Status
1 | (2/2) Accurately ripped
2 | (2/2) Accurately ripped
3 | (2/2) Accurately ripped
4 | (2/2) Accurately ripped
5 | (2/2) Accurately ripped
6 | (2/2) Accurately ripped
7 | (2/2) Accurately ripped
8 | (2/2) Accurately ripped
9 | (2/2) Accurately ripped
10 | (2/2) Accurately ripped
11 | (2/2) Accurately ripped
12 | (2/2) Accurately ripped
13 | (2/2) Accurately ripped
14 | (2/2) Accurately ripped
15 | (2/2) Accurately ripped
16 | (2/2) Accurately ripped
17 | (2/2) Accurately ripped
18 | (2/2) Accurately ripped
19 | (2/2) Accurately ripped
20 | (2/2) Accurately ripped


==== Log checksum 3012F8CF15619B583F2C49445027314E6F0234B85C91B57A624A1F4AB6FCA316 ====

[CUETools log; Date: 24.01.2018 23:32:34; Version: 2.1.4]
[CTDB TOCID: Fw1IouJtYrL3szNhEkxco_Kg30E-] found.
Track | CTDB Status
1 | (10/10) Accurately ripped
2 | (10/10) Accurately ripped
3 | (10/10) Accurately ripped
4 | (10/10) Accurately ripped
5 | (10/10) Accurately ripped
6 | (10/10) Accurately ripped
7 | (10/10) Accurately ripped
8 | (10/10) Accurately ripped
9 | (10/10) Accurately ripped
10 | (10/10) Accurately ripped
11 | (10/10) Accurately ripped
12 | (10/10) Accurately ripped
13 | (10/10) Accurately ripped
14 | (10/10) Accurately ripped
15 | (10/10) Accurately ripped
16 | (10/10) Accurately ripped
17 | (10/10) Accurately ripped
18 | (10/10) Accurately ripped
19 | (10/10) Accurately ripped
20 | (10/10) Accurately ripped
[AccurateRip ID: 002e6e01-029e226a-f40e3d14] found.
Track [ CRC | V2 ] Status
01 [64efbfe1|18cbd4e6] (2+3/5) Accurately ripped
02 [7d96241c|f886aefd] (2+3/5) Accurately ripped
03 [91afbd0e|7c7c34d5] (2+3/5) Accurately ripped
04 [91e1572b|cdcb0cdf] (2+3/5) Accurately ripped
05 [657b189a|41b2a27f] (2+3/5) Accurately ripped
06 [97232a37|5c618a58] (2+3/5) Accurately ripped
07 [546ae7b1|47693844] (2+3/5) Accurately ripped
08 [c996b4d5|efff1866] (2+3/5) Accurately ripped
09 [fe42299d|99e6468e] (2+3/5) Accurately ripped
10 [1d81cfd1|abc306d8] (2+3/5) Accurately ripped
11 [92589186|85a943ef] (2+3/5) Accurately ripped
12 [01f046a6|aec046c9] (2+3/5) Accurately ripped
13 [06944c4a|63efbe00] (2+3/5) Accurately ripped
14 [715b1c8f|0bb33f2f] (2+3/5) Accurately ripped
15 [bcb9baad|b1fdf969] (0+3/3) Accurately ripped
16 [257bf831|643f1e29] (2+3/5) Accurately ripped
17 [7e00b2ca|d8850398] (0+3/3) Accurately ripped
18 [1431aaf2|25053ddc] (2+3/5) Accurately ripped
19 [7083cbb4|29685f48] (2+3/5) Accurately ripped
20 [6c162afc|b8faf8a7] (2+3/5) Accurately ripped
Offsetted by -659:
01 [d8b3188e] (0/5) No match (V2 was not tested)
02 [2088108e] (0/5) No match (V2 was not tested)
03 [7e6e38ae] (0/5) No match (V2 was not tested)
04 [dd27ed26] (0/5) No match (V2 was not tested)
05 [2627a36a] (0/5) No match (V2 was not tested)
06 [1e587b86] (0/5) No match (V2 was not tested)
07 [d4dc6963] (0/5) No match (V2 was not tested)
08 [6de22004] (0/5) No match (V2 was not tested)
09 [7db0a3b3] (0/5) No match (V2 was not tested)
10 [25ac2053] (0/5) No match (V2 was not tested)
11 [7aeb3660] (0/5) No match (V2 was not tested)
12 [772e6e84] (0/5) No match (V2 was not tested)
13 [503b1362] (0/5) No match (V2 was not tested)
14 [6fd83318] (0/5) No match (V2 was not tested)
15 [c80baa41] (0/3) No match (V2 was not tested)
16 [2a71bc5b] (0/5) No match (V2 was not tested)
17 [19e13d63] (0/3) No match (V2 was not tested)
18 [32492275] (0/5) No match (V2 was not tested)
19 [4ba73c90] (0/5) No match (V2 was not tested)
20 [189230ff] (0/5) No match (V2 was not tested)

Track Peak [ CRC32 ] [W/O NULL] [ LOG ]
– 86,2 [D5A78802] [DD1D25DC]
01 62,9 [B24D5AF2] [718BDE65] CRC32
02 75,0 [C22215BA] [51DFAC34] CRC32
03 73,4 [79368362] [3105CCDA] CRC32
04 75,1 [725A0F43] [25CB2BB7] CRC32
05 86,2 [766D0160] [9AAF4A48] CRC32
06 74,7 [A2C6F96D] [AF592860] CRC32
07 67,7 [002B8921] [33EEFC47] CRC32
08 79,6 [B28F35A3] [B9A2E526] CRC32
09 66,9 [50179D2A] [A04C69BC] CRC32
10 68,3 [CC6C056D] [B4152A5F] CRC32
11 73,7 [46DEB8FC] [F816B0FA] CRC32
12 67,1 [FA607DDE] [1259D9B3] CRC32
13 77,7 [E213E288] [70FEFCC2] CRC32
14 70,0 [DB047226] [87C9EF6E] CRC32
15 65,7 [9458BDA3] [6A0ACAC1] CRC32
16 78,0 [F8459C2F] [76F9CBD3] CRC32
17 68,5 [8910E8EB] [393CAF8C] CRC32
18 67,4 [F3BB4017] [0F56678F] CRC32
19 71,1 [D88D66FA] [92ECECFA] CRC32
20 67,8 [368B5A08] [5492BDFD] CRC32

Thanks to zootallure

See also: