Subcategories

Otmar Suitner, Bavarian State Opera Orchestra - Gluck: Der betrogene Kadi (1998)

Posted By: ArlegZ
Otmar Suitner, Bavarian State Opera Orchestra - Gluck: Der betrogene Kadi (1998)

Otmar Suitner, Bavarian State Opera Orchestra - Gluck: Der betrogene Kadi (1998)
EAC | FLAC | Image (Cue & Log) ~ 241 Mb | Total time: 49:04 | Scans included
Classical | Label: CPO | 999 552-2 | Recorded: 1974

After the wars with the Ottoman Empire, the Turks – their dress, manners, and music-fascinated 18th century Europe, and poking fun at them became standard fare in Parisian vaudevilles. Gluck picked up the theme in 1761 after he became conductor of the French Opera in Vienna, using a translated French libretto by P.R. Monnier that had already been set to music by Monsigny. La Cadi Dupée ("The Duped Cadi") was believed lost until it was rediscovered in the archives of the Hamburg State Opera by the producer of this recording. The central character is a Cadi (a Muslim judge) who wants to marry the reluctant Zelmire, to the dismay of his wife Fatime. Zelmire, in love with Nuradin, pretends to be Omega, the unattractive daughter of the dyer Omar; after the marriage contract is signed and Omega appears, the Cadi has to buy his way out of the imbroglio and return contritely to Fatime while Zelmire and Nuradin go off happily. The music has many of the characteristics of Gluck's reform opera Orfeo ed Euridice, written one year later, in its simple lines, integration of arias into the plot, and use of chords and quick modulations to delineate characters and events. The piece is skillfully orchestrated, incorporating instruments found in janissary bands; it employs a minimum of dialogue, the chorus appears only in the finale, and the mostly strophic arias are lovely. The singers and the orchestra in this 1977 recording are first-rate, with Donath radiant as Zelmire and Walter Berry's rich bass voice used to great comic effect in the title role.

Performer:
Cadi - Walter Berry, bass
Fatime, his wife - Anneliese Rothenberger, soprano
Zelmire - Helen Donath, soprano
Nuradin - Nicolai Gedda, tenor
Omar, a dyer - Klaus Hirte, baritone
Omega, hid daugther - Regina Marheineke, soprano
Chor und Orchester der Bayerischen Staatsoper München
Conductor - Otmar Suitner

Track List:
01. Overture
02. Ach, wie sind wir zu beklagen
03. Dialogue
04. Teure, lasse dich erflehen
05. Dialogue
06. Welch ein subes Gluck fur mich
07. Dialogue
08. Du, der ich mich geweihet
09. Dialogue
10. Herr Kadi, was dunkt Sie von mir?
11. Dialogue
12. O seliger Tag fur mich
13. Dialogue
14. Macht mein Weib mir sauer Mienen
15. Dialogue
16. Ach leider, muu ich's klagen
17. Dialogue
18. O, du mein Trauter
19. Dialogue
20. Treuloses Herz, Verfuhrer
21. Dialogue
22. Ist dein Herz nicht mein?
23. Dialogue
24. Du spottest meiner?
25. Dialogue Listen
26. Sie wollen andre hintergehen
27. Dialogue
28. Lebe wohl, geliebter Mann
29. Dialogue
30. Dab wir zu nachgebend uns bezeugen
31. Ungeteilt reine Liebe zu schmecken


Exact Audio Copy V1.5 from 20. February 2020

EAC extraction logfile from 22. March 2020, 11:00

Otmar Suitner / Gluck - Der betrogene Kadi

Used drive : HL-DT-STBD-RE WH16NS40 Adapter: 1 ID: 0

Read mode : Secure
Utilize accurate stream : Yes
Defeat audio cache : Yes
Make use of C2 pointers : No

Read offset correction : 6
Overread into Lead-In and Lead-Out : No
Fill up missing offset samples with silence : Yes
Delete leading and trailing silent blocks : No
Null samples used in CRC calculations : Yes
Used interface : Native Win32 interface for Win NT & 2000

Used output format : User Defined Encoder
Selected bitrate : 1024 kBit/s
Quality : High
Add ID3 tag : No
Command line compressor : C:\Program Files (x86)\Exact Audio Copy\FLAC\FLAC.EXE
Additional command line options : -6 -V -T "ARTIST=%artist%" -T "TITLE=%title%" -T "ALBUM=%albumtitle%" -T "DATE=%year%" -T "TRACKNUMBER=%tracknr%" -T "GENRE=%genre%" -T "COMMENT=%comment%" -T "BAND=%albuminterpret%" -T "ALBUMARTIST=%albuminterpret%" -T "COMPOSER=%composer%" %haslyrics%–tag-from-file=LYRICS="%lyricsfile%"%haslyrics% -T "DISCNUMBER=%cdnumber%" -T "TOTALDISCS=%totalcds%" -T "TOTALTRACKS=%numtracks%" %hascover%–picture="%coverfile%"%hascover% %source% -o %dest%


TOC of the extracted CD

Track | Start | Length | Start sector | End sector
––––––––––––––––––––––––––––-
1 | 0:00.00 | 2:37.42 | 0 | 11816
2 | 2:37.42 | 2:49.50 | 11817 | 24541
3 | 5:27.17 | 1:48.20 | 24542 | 32661
4 | 7:15.37 | 1:41.50 | 32662 | 40286
5 | 8:57.12 | 0:05.15 | 40287 | 40676
6 | 9:02.27 | 2:50.40 | 40677 | 53466
7 | 11:52.67 | 0:17.60 | 53467 | 54801
8 | 12:10.52 | 3:49.20 | 54802 | 71996
9 | 15:59.72 | 0:28.68 | 71997 | 74164
10 | 16:28.65 | 4:23.10 | 74165 | 93899
11 | 20:52.00 | 1:41.32 | 93900 | 101506
12 | 22:33.32 | 1:11.15 | 101507 | 106846
13 | 23:44.47 | 0:31.30 | 106847 | 109201
14 | 24:16.02 | 1:55.70 | 109202 | 117896
15 | 26:11.72 | 0:18.15 | 117897 | 119261
16 | 26:30.12 | 1:54.23 | 119262 | 127834
17 | 28:24.35 | 1:05.10 | 127835 | 132719
18 | 29:29.45 | 2:23.20 | 132720 | 143464
19 | 31:52.65 | 0:10.37 | 143465 | 144251
20 | 32:03.27 | 2:56.68 | 144252 | 157519
21 | 35:00.20 | 0:32.27 | 157520 | 159946
22 | 35:32.47 | 2:38.30 | 159947 | 171826
23 | 38:11.02 | 0:13.23 | 171827 | 172824
24 | 38:24.25 | 1:10.40 | 172825 | 178114
25 | 39:34.65 | 0:32.17 | 178115 | 180531
26 | 40:07.07 | 1:42.23 | 180532 | 188204
27 | 41:49.30 | 0:43.05 | 188205 | 191434
28 | 42:32.35 | 1:41.55 | 191435 | 199064
29 | 44:14.15 | 0:26.30 | 199065 | 201044
30 | 44:40.45 | 1:48.15 | 201045 | 209159
31 | 46:28.60 | 2:34.72 | 209160 | 220781


Range status and errors

Selected range

Filename C:\Users\Grant\Desktop\Otmar Suitner - Gluck - Der betrogene Kadi.wav

Peak level 98.5 %
Extraction speed 7.2 X
Range quality 100.0 %
Test CRC 689FF7DD
Copy CRC 689FF7DD
Copy OK

No errors occurred


AccurateRip summary

Track 1 accurately ripped (confidence 3) [E1B59ADE] (AR v2)
Track 2 accurately ripped (confidence 3) [B05F7659] (AR v2)
Track 3 accurately ripped (confidence 3) [489AB3BB] (AR v2)
Track 4 accurately ripped (confidence 3) [F34D09ED] (AR v2)
Track 5 accurately ripped (confidence 1) [4C2DA7FD] (AR v2)
Track 6 accurately ripped (confidence 3) [50A4C306] (AR v2)
Track 7 accurately ripped (confidence 3) [A53721E7] (AR v2)
Track 8 accurately ripped (confidence 3) [78FDB9D2] (AR v2)
Track 9 accurately ripped (confidence 3) [93A1ED2A] (AR v2)
Track 10 accurately ripped (confidence 3) [DA5E8003] (AR v2)
Track 11 accurately ripped (confidence 3) [6A7BD186] (AR v2)
Track 12 accurately ripped (confidence 3) [DF85FB87] (AR v2)
Track 13 accurately ripped (confidence 3) [48E4F71F] (AR v2)
Track 14 accurately ripped (confidence 3) [B5A19FAA] (AR v2)
Track 15 accurately ripped (confidence 3) [480936FD] (AR v2)
Track 16 accurately ripped (confidence 3) [0BF9748F] (AR v2)
Track 17 accurately ripped (confidence 3) [53B7A669] (AR v2)
Track 18 accurately ripped (confidence 3) [62FA33A8] (AR v2)
Track 19 accurately ripped (confidence 3) [6FC7679E] (AR v2)
Track 20 accurately ripped (confidence 3) [1D0E7DDA] (AR v2)
Track 21 accurately ripped (confidence 3) [DB087750] (AR v2)
Track 22 accurately ripped (confidence 3) [37ADB528] (AR v2)
Track 23 accurately ripped (confidence 3) [CB9F3C78] (AR v2)
Track 24 accurately ripped (confidence 3) [D4C84F76] (AR v2)
Track 25 accurately ripped (confidence 3) [3D185D65] (AR v2)
Track 26 accurately ripped (confidence 3) [137890AF] (AR v2)
Track 27 accurately ripped (confidence 3) [7015A4C7] (AR v2)
Track 28 accurately ripped (confidence 3) [E2BEF357] (AR v2)
Track 29 accurately ripped (confidence 3) [7C0E95DD] (AR v2)
Track 30 accurately ripped (confidence 3) [4AFCE3B5] (AR v2)
Track 31 accurately ripped (confidence 3) [3A107E62] (AR v2)

All tracks accurately ripped

End of status report

–– CUETools DB Plugin V2.1.6

[CTDB TOCID: W5HN.xsacF1mOZKSJKyTyTcHLYI-] found
Submit result: W5HN.xsacF1mOZKSJKyTyTcHLYI- has been confirmed
Track | CTDB Status
1 | (7/7) Accurately ripped
2 | (7/7) Accurately ripped
3 | (7/7) Accurately ripped
4 | (7/7) Accurately ripped
5 | (7/7) Accurately ripped
6 | (7/7) Accurately ripped
7 | (7/7) Accurately ripped
8 | (7/7) Accurately ripped
9 | (7/7) Accurately ripped
10 | (7/7) Accurately ripped
11 | (7/7) Accurately ripped
12 | (7/7) Accurately ripped
13 | (7/7) Accurately ripped
14 | (7/7) Accurately ripped
15 | (7/7) Accurately ripped
16 | (7/7) Accurately ripped
17 | (7/7) Accurately ripped
18 | (7/7) Accurately ripped
19 | (7/7) Accurately ripped
20 | (7/7) Accurately ripped
21 | (7/7) Accurately ripped
22 | (7/7) Accurately ripped
23 | (7/7) Accurately ripped
24 | (7/7) Accurately ripped
25 | (7/7) Accurately ripped
26 | (7/7) Accurately ripped
27 | (7/7) Accurately ripped
28 | (7/7) Accurately ripped
29 | (7/7) Accurately ripped
30 | (7/7) Accurately ripped
31 | (7/7) Accurately ripped


==== Log checksum 19B088FAC3B9F9305693AECE7CFAC2F823FEF7B684E5612B37F7DDCD26C77079 ====

Otmar Suitner, Bavarian State Opera Orchestra - Gluck: Der betrogene Kadi (1998)

Thanks to the original releaser