Tags
Language
Tags
January 2023
Su Mo Tu We Th Fr Sa
1 2 3 4 5 6 7
8 9 10 11 12 13 14
15 16 17 18 19 20 21
22 23 24 25 26 27 28
29 30 31 1 2 3 4

Pamela Hines Trio - Return (2007) {Spice Rack}

Posted By: TestTickles
Pamela Hines Trio - Return (2007) {Spice Rack}

Pamela Hines Trio - Return (2007) {Spice Rack}
EAC Rip | FLAC with CUE and log | scans | 334 mb
MP3 CBR 320kbps | RAR | 131 mb
Genre: jazz

Return is the 2007 album by pianist Pamela Hines and her trio, with special guest, saxophonist Jerry Bergonzi. This was a Spice Rack presentation.

Pamela Hines Trio - Return (2007) {Spice Rack}

1. Ojos de Rojo
2. My Heart Stood Still
3. Return
4. I'm Through With Love
5. Displacement
6. Very
7. Comrad Conrad
8. My Heart Stood Still (Alt.)
9. Ward One

Pamela Hines-piano
John Lockwood-bass
Bob Guilotti-drums

Jerry Bergonzi-sax

Recorded, mixed & mastered by Peter Kontrimas

EAC extraction logfile from 3. June 2017, 19:13 for CD
Pamela Hines Trio / Return

Used drive : TSSTcorpDVD+-RW TS-H653B Adapter: 2 ID: 0
Read mode : Secure with NO C2, accurate stream, disable cache
Read offset correction : 6
Overread into Lead-In and Lead-Out : No

Used output format : Internal WAV Routines
44.100 Hz; 16 Bit; Stereo

Other options :
Fill up missing offset samples with silence : Yes
Delete leading and trailing silent blocks : No
Native Win32 interface for Win NT & 2000


Track 1
Filename C:\Documents and Settings\cuntfist\Desktop\FLAC's\33\Pamela Hines Trio - Return (2007) [FLAC] {Spice Rack}\01 - Ojos de Rojo.wav

Pre-gap length 0:00:02.00

Peak level 98.8 %
Track quality 100.0 %
Test CRC F98C1F54
Copy CRC F98C1F54
Copy OK

Track 2
Filename C:\Documents and Settings\cuntfist\Desktop\FLAC's\33\Pamela Hines Trio - Return (2007) [FLAC] {Spice Rack}\02 - My Heart Stood Still.wav

Peak level 98.8 %
Track quality 100.0 %
Test CRC 78AB7E9F
Copy CRC 78AB7E9F
Copy OK

Track 3
Filename C:\Documents and Settings\cuntfist\Desktop\FLAC's\33\Pamela Hines Trio - Return (2007) [FLAC] {Spice Rack}\03 - Return.wav

Peak level 98.8 %
Track quality 100.0 %
Test CRC C06352F8
Copy CRC C06352F8
Copy OK

Track 4
Filename C:\Documents and Settings\cuntfist\Desktop\FLAC's\33\Pamela Hines Trio - Return (2007) [FLAC] {Spice Rack}\04 - I'm Through With Love.wav

Peak level 98.8 %
Track quality 100.0 %
Test CRC 77760E60
Copy CRC 77760E60
Copy OK

Track 5
Filename C:\Documents and Settings\cuntfist\Desktop\FLAC's\33\Pamela Hines Trio - Return (2007) [FLAC] {Spice Rack}\05 - Displacement.wav

Peak level 98.8 %
Track quality 100.0 %
Test CRC E0196FFB
Copy CRC E0196FFB
Copy OK

Track 6
Filename C:\Documents and Settings\cuntfist\Desktop\FLAC's\33\Pamela Hines Trio - Return (2007) [FLAC] {Spice Rack}\06 - Very.wav

Peak level 98.8 %
Track quality 100.0 %
Test CRC CBF065DD
Copy CRC CBF065DD
Copy OK

Track 7
Filename C:\Documents and Settings\cuntfist\Desktop\FLAC's\33\Pamela Hines Trio - Return (2007) [FLAC] {Spice Rack}\07 - Comrad Conrad.wav

Peak level 98.8 %
Track quality 100.0 %
Test CRC 3D183E79
Copy CRC 3D183E79
Copy OK

Track 8
Filename C:\Documents and Settings\cuntfist\Desktop\FLAC's\33\Pamela Hines Trio - Return (2007) [FLAC] {Spice Rack}\08 - My Heart Stood Still (Alt.).wav

Peak level 98.8 %
Track quality 100.0 %
Test CRC 10F55389
Copy CRC 10F55389
Copy OK

Track 9
Filename C:\Documents and Settings\cuntfist\Desktop\FLAC's\33\Pamela Hines Trio - Return (2007) [FLAC] {Spice Rack}\09 - Ward One.wav

Peak level 98.8 %
Track quality 100.0 %
Test CRC 98A4917C
Copy CRC 98A4917C
Copy OK

No errors occured


End of status report


Pamela Hines Trio - Return (2007) {Spice Rack}