Tags
Language
Tags

Pandit Ravi Shankar - s/t (1995) {Ocora Radio France} **[RE-UP]**

Posted By: TestTickles
Pandit Ravi Shankar - s/t (1995) {Ocora Radio France} **[RE-UP]**

Pandit Ravi Shankar - s/t (1995) {Ocora Radio France}
EAC Rip | FLAC with CUE and log | scans | 316 mb
MP3 CBR 320kbps | RAR | 153 mb
Genre: Indian classical

This CD by Ravi Shankar is from a recording done for French radio in Studio 106 on 26 June, 1986. He is accompanied by Kumar Bose (tabla), Vidya Bataju (tampura), and Jeevan Govinda (tampura). The CD was released in 1995 by Ocora Radio France.
This disc is a re-release of a recording made in the studios of Radio France in 1986. It features three raags, of 30, 20, and ten minutes in length. The ten-minute one ("Dhun Man Pasand") was improvised by Shankar at the studio from international sources and is very dynamic and accessible. The longer ones, especially the 30-minute raag, require more work on the part of the listener, but repay the effort. The raags feature Shankar on sitar, the masterful Kumar Bose on tabla, and two tampura players. The recording is good but not crystalline, with the tabla drums being recessed into the background. A very good disc. Not for the casual listener, but those serious about Indian classical music need not hesitate.

Pandit Ravi Shankar - s/t (1995) {Ocora Radio France} **[RE-UP]**

1. Raga Puriya-Kalyan (31:00)
2. Raga Purvi-Kalyan (20:30)
3. Dhun Man Pasand (11:40)

EAC extraction logfile from 29. May 2007, 20:02 for CD
Pandit Ravi Shankar / Pandit Ravi Shankar

Used drive : LITE-ON DVDRW SOHW-1633S Adapter: 0 ID: 0
Read mode : Secure with NO C2, accurate stream, disable cache
Read offset correction : 12
Overread into Lead-In and Lead-Out : No

Used output format : Internal WAV Routines
44.100 Hz; 16 Bit; Stereo

Other options :
Fill up missing offset samples with silence : Yes
Delete leading and trailing silent blocks : No
Installed external ASPI interface


Track 1
Filename D:\FLAC\Pandit Ravi Shankar - s-t (1995) [FLAC] {Ocora Radio France}\01 - Raga Puriya-Kalyan.wav

Pre-gap length 0:00:02.44

Peak level 78.2 %
Track quality 100.0 %
Test CRC 74491DAF
Copy CRC 74491DAF
Copy OK

Track 2
Filename D:\FLAC\Pandit Ravi Shankar - s-t (1995) [FLAC] {Ocora Radio France}\02 - Raga Purvi-Kalyan.wav

Pre-gap length 0:00:03.60

Peak level 97.0 %
Track quality 100.0 %
Test CRC B41C9A7E
Copy CRC B41C9A7E
Copy OK

Track 3
Filename D:\FLAC\Pandit Ravi Shankar - s-t (1995) [FLAC] {Ocora Radio France}\03 - Dhun Man Pasand.wav

Pre-gap length 0:00:01.82

Peak level 100.0 %
Track quality 100.0 %
Test CRC A02483CA
Copy CRC A02483CA
Copy OK

No errors occured


End of status report


Pandit Ravi Shankar - s/t (1995) {Ocora Radio France} **[RE-UP]**