Subcategories
Tags
Language
Tags

Pau Hana - Island Lion (2006) {Island Lion Publishing}

Posted By: TestTickles
Pau Hana - Island Lion (2006) {Island Lion Publishing}

Pau Hana - Island Lion (2006) {Island Lion Publishing}
EAC Rip | FLAC with CUE and log | scans | 401 mb
MP3 CBR 320kbps | RAR | 152 mb
Genre: reggae, Jawaiian

Island Lion is a 2006 disc by Hawaiian reggae group Pau Hana, featuring the power of romantic vibes done Jawaiian style. This was released on their own Island Lion Publishing, which means it was made for their fans.

Pau Hana - Island Lion (2006) {Island Lion Publishing}

01. Party Going On
02. No
03. Losing Control
04. Island Lion
05. She Was My Lady
06. Soia
07. Fight If We Must
08. Dippin' In The Lolo
09. In The Mood
10. My Queen
11. Three Plus Five
12. Feast Or Famine

Exact Audio Copy V1.6 from 23. October 2020

EAC extraction logfile from 13. June 2021, 20:44

Pau Hana / Island Lion

Used drive : HL-DT-STDVD+-RW GT32N Adapter: 1 ID: 0

Read mode : Burst

Read offset correction : 103
Overread into Lead-In and Lead-Out : No
Fill up missing offset samples with silence : Yes
Delete leading and trailing silent blocks : No
Null samples used in CRC calculations : Yes
Used interface : Native Win32 interface for Win NT & 2000
Gap handling : Not detected, thus appended to previous track

Used output format : Internal WAV Routines
Sample format : 44.100 Hz; 16 Bit; Stereo


TOC of the extracted CD

Track | Start | Length | Start sector | End sector
––––––––––––––––––––––––––––-
1 | 0:00.00 | 4:39.17 | 0 | 20941
2 | 4:39.17 | 5:08.32 | 20942 | 44073
3 | 9:47.49 | 4:31.38 | 44074 | 64436
4 | 14:19.12 | 4:34.24 | 64437 | 85010
5 | 18:53.36 | 4:22.27 | 85011 | 104687
6 | 23:15.63 | 7:39.69 | 104688 | 139181
7 | 30:55.57 | 5:34.27 | 139182 | 164258
8 | 36:30.09 | 3:40.24 | 164259 | 180782
9 | 40:10.33 | 5:52.69 | 180783 | 207251
10 | 46:03.27 | 3:58.48 | 207252 | 225149
11 | 50:02.00 | 4:07.69 | 225150 | 243743
12 | 54:09.69 | 4:44.06 | 243744 | 265049


Track 1

Filename C:\cuntfist\FLAC\Pau Hana - Island Lion (2006) [FLAC] {Island Lion Publishing}\01 - Party Going On.wav

Peak level 96.9 %
Extraction speed 10.2 X
Test CRC D70FBAA1
Copy CRC D70FBAA1
Track not present in AccurateRip database
Copy OK

Track 2

Filename C:\cuntfist\FLAC\Pau Hana - Island Lion (2006) [FLAC] {Island Lion Publishing}\02 - No.wav

Peak level 98.8 %
Extraction speed 11.3 X
Test CRC A6CB33C6
Copy CRC A6CB33C6
Track not present in AccurateRip database
Copy OK

Track 3

Filename C:\cuntfist\FLAC\Pau Hana - Island Lion (2006) [FLAC] {Island Lion Publishing}\03 - Losing Control.wav

Peak level 96.8 %
Extraction speed 10.8 X
Test CRC 720FBD93
Copy CRC 720FBD93
Track not present in AccurateRip database
Copy OK

Track 4

Filename C:\cuntfist\FLAC\Pau Hana - Island Lion (2006) [FLAC] {Island Lion Publishing}\04 - Island Lion.wav

Timing problem 0:04:13

Peak level 96.8 %
Extraction speed 14.2 X
Test CRC 1DD80249
Copy CRC 1DD80249
Track not present in AccurateRip database
Copy finished

Track 5

Filename C:\cuntfist\FLAC\Pau Hana - Island Lion (2006) [FLAC] {Island Lion Publishing}\05 - She Was My Lady.wav

Peak level 98.8 %
Extraction speed 14.3 X
Test CRC A2C58C01
Copy CRC A2C58C01
Track not present in AccurateRip database
Copy OK

Track 6

Filename C:\cuntfist\FLAC\Pau Hana - Island Lion (2006) [FLAC] {Island Lion Publishing}\06 - Soia.wav

Peak level 98.8 %
Extraction speed 16.2 X
Test CRC 32BFCEAD
Copy CRC 32BFCEAD
Track not present in AccurateRip database
Copy OK

Track 7

Filename C:\cuntfist\FLAC\Pau Hana - Island Lion (2006) [FLAC] {Island Lion Publishing}\07 - Fight If We Must.wav

Peak level 96.8 %
Extraction speed 15.2 X
Test CRC 493E4348
Copy CRC 493E4348
Track not present in AccurateRip database
Copy OK

Track 8

Filename C:\cuntfist\FLAC\Pau Hana - Island Lion (2006) [FLAC] {Island Lion Publishing}\08 - Dippin' In The Lolo.wav

Peak level 96.8 %
Extraction speed 15.9 X
Test CRC 67E49C24
Copy CRC 67E49C24
Track not present in AccurateRip database
Copy OK

Track 9

Filename C:\cuntfist\FLAC\Pau Hana - Island Lion (2006) [FLAC] {Island Lion Publishing}\09 - In The Mood.wav

Peak level 96.8 %
Extraction speed 17.6 X
Test CRC 2F716B58
Copy CRC 2F716B58
Track not present in AccurateRip database
Copy OK

Track 10

Filename C:\cuntfist\FLAC\Pau Hana - Island Lion (2006) [FLAC] {Island Lion Publishing}\10 - My Queen.wav

Peak level 98.8 %
Extraction speed 18.2 X
Test CRC 9F36B08B
Copy CRC 9F36B08B
Track not present in AccurateRip database
Copy OK

Track 11

Filename C:\cuntfist\FLAC\Pau Hana - Island Lion (2006) [FLAC] {Island Lion Publishing}\11 - Three Plus Five.wav

Peak level 98.8 %
Extraction speed 18.2 X
Test CRC 012E022E
Copy CRC 012E022E
Track not present in AccurateRip database
Copy OK

Track 12

Filename C:\cuntfist\FLAC\Pau Hana - Island Lion (2006) [FLAC] {Island Lion Publishing}\12 - Feast Or Famine.wav

Peak level 96.8 %
Extraction speed 18.4 X
Test CRC 24D5E746
Copy CRC 24D5E746
Track not present in AccurateRip database
Copy OK


None of the tracks are present in the AccurateRip database

No errors occurred

End of status report

–– CUETools DB Plugin V2.1.6

[CTDB TOCID: BvQSaN88qCuUiludkbhpRCJqcEE-] disk not present in database
Submit result: BvQSaN88qCuUiludkbhpRCJqcEE- has been uploaded


==== Log checksum 13719654C6A07BE3C6C1C02E99E8BC1AC30933CA27D81548B09E3DA2B3C14D68 ====


Pau Hana - Island Lion (2006) {Island Lion Publishing}