Tags
Language
Tags

Palladian Ensemble - A Choice Collection: Music of Purcell's London (1995)

Posted By: ArlegZ
Palladian Ensemble - A Choice Collection: Music of Purcell's London (1995)

Palladian Ensemble - A Choice Collection: Music of Purcell's London (1995)
EAC | FLAC | Image (Cue & Log) ~ 347 Mb | Total time: 66:18 | Scans included
Classical | Label: Linn Records | # CKD 041 | Recorded: 1995

The "choice collection" of "music of Purcell's London" is of items such as might have been heard at the concerts of then contemporary music held on the premises of Thomas Britton, the "small coalman", surely one of the most 'unlikely' patrons in the history of music. It is in effect complimentary to the Palladian Ensemble's earlier disc (An Excess of Pleasure, also on Linn records), with another liberal helping of Matteis's various and sometimes agreeably bizarre Ayres and two more of Locke's Broken Consorts, which we find absorbing rather than confusing - as Charles II did…
If you are not already aware of the high quality of the instrumental playing, stylish musicality, imaginative approach and oneness of the Palladian Ensemble, read any review of their previous recordings; this disc provides as good an oppurtunity as any to find what you have been missing. Youth is at the helm in what amounts to (and sounds like) a joyous discovery. Join them on board.

Performer:
Palladian Ensemble:
Pamela Thorby, recorders
Rachel Podger, violin
Susanne Heirich, viola da gamba
William Carter, archlute & guitar

Track List:
Mathew Locke - Broken Consort in D
01. Fantazie
02. Courant
03. Ayre
04. Saraband
Nicola Matteis - Sett if Ayres in F
05. Preludio - Prestissimo
06. Sarabanda - Adagio
07. Gavotta con Divisiono
Nicola Matteis - Ayres for the Violin
08. Preludio in ostinatione
09. Andamento malinconico
10. Thomas Baltzar - John come kiss me now
John Weldon - Sett Of Ayres in D
11. Overture
12. Minuet
13. Almain
14. Corant
15. Two in one on a Ground
16. Anonymous - Old Simon the King
17. John Blow - Ground in G minor
18. Henry Butler - Variations on Callino Casturame
19. John Banister the Elder - Divisions on a Ground
Nicola Matteis - Sett In Ayres in E
20. Bizzararrie sopra un basso Matinconico
21. Aria Amorosa Adagio
Mathew Locke - Broken Consort in C
22. Fantazie
23. Courant
24. Ayre
25. Saraband


Exact Audio Copy V1.3 from 2. September 2016

EAC extraction logfile from 5. June 2019, 17:33

Palladian Ensemble / A choice collection, music of Purcell's London

Used drive : hp CDDVDW SU-208GB Adapter: 1 ID: 0

Read mode : Secure
Utilize accurate stream : Yes
Defeat audio cache : Yes
Make use of C2 pointers : No

Read offset correction : 6
Overread into Lead-In and Lead-Out : No
Fill up missing offset samples with silence : Yes
Delete leading and trailing silent blocks : No
Null samples used in CRC calculations : Yes
Used interface : Native Win32 interface for Win NT & 2000

Used output format : User Defined Encoder
Selected bitrate : 1024 kBit/s
Quality : High
Add ID3 tag : No
Command line compressor : C:\Program Files (x86)\Exact Audio Copy\FLAC\FLAC.EXE
Additional command line options : -6 -V -T "ARTIST=%artist%" -T "TITLE=%title%" -T "ALBUM=%albumtitle%" -T "DATE=%year%" -T "TRACKNUMBER=%tracknr%" -T "GENRE=%genre%" -T "COMMENT=%comment%" -T "BAND=%albuminterpret%" -T "ALBUMARTIST=%albuminterpret%" -T "COMPOSER=%composer%" %haslyrics%–tag-from-file=LYRICS="%lyricsfile%"%haslyrics% -T "DISCNUMBER=%cdnumber%" -T "TOTALDISCS=%totalcds%" -T "TOTALTRACKS=%numtracks%" %hascover%–picture="%coverfile%"%hascover% %source% -o %dest%


TOC of the extracted CD

Track | Start | Length | Start sector | End sector
––––––––––––––––––––––––––––-
1 | 0:00.32 | 2:53.38 | 32 | 13044
2 | 2:53.70 | 1:44.02 | 13045 | 20846
3 | 4:37.72 | 1:55.05 | 20847 | 29476
4 | 6:33.02 | 1:20.53 | 29477 | 35529
5 | 7:53.55 | 0:56.25 | 35530 | 39754
6 | 8:50.05 | 2:26.30 | 39755 | 50734
7 | 11:16.35 | 2:23.67 | 50735 | 61526
8 | 13:40.27 | 1:01.48 | 61527 | 66149
9 | 14:42.00 | 4:13.47 | 66150 | 85171
10 | 18:55.47 | 4:39.73 | 85172 | 106169
11 | 23:35.45 | 2:02.20 | 106170 | 115339
12 | 25:37.65 | 0:55.02 | 115340 | 119466
13 | 26:32.67 | 2:08.50 | 119467 | 129116
14 | 28:41.42 | 1:52.18 | 129117 | 137534
15 | 30:33.60 | 2:05.32 | 137535 | 146941
16 | 32:39.17 | 2:06.23 | 146942 | 156414
17 | 34:45.40 | 3:57.07 | 156415 | 174196
18 | 38:42.47 | 5:57.25 | 174197 | 200996
19 | 44:39.72 | 4:15.25 | 200997 | 220146
20 | 48:55.22 | 3:58.13 | 220147 | 238009
21 | 52:53.35 | 6:10.02 | 238010 | 265761
22 | 59:03.37 | 1:57.18 | 265762 | 274554
23 | 61:00.55 | 1:09.15 | 274555 | 279744
24 | 62:09.70 | 3:36.62 | 279745 | 296006
25 | 65:46.57 | 0:37.50 | 296007 | 298831


Range status and errors

Selected range

Filename C:\Users\MATS\Downloads\trios for 4\A Choice Collection\Palladian Ensemble - A choice collection, music of Purcell's London.wav

Peak level 96.6 %
Extraction speed 4.0 X
Range quality 100.0 %
Test CRC 21ED0C61
Copy CRC 21ED0C61
Copy OK

No errors occurred


AccurateRip summary

Track 1 accurately ripped (confidence 10) [6B5584E6] (AR v2)
Track 2 accurately ripped (confidence 10) [E4443E8E] (AR v2)
Track 3 accurately ripped (confidence 10) [1DF8CECC] (AR v2)
Track 4 accurately ripped (confidence 10) [FFDAA75F] (AR v2)
Track 5 accurately ripped (confidence 10) [764F72A6] (AR v2)
Track 6 accurately ripped (confidence 10) [71DFABDF] (AR v2)
Track 7 accurately ripped (confidence 10) [5F617829] (AR v2)
Track 8 accurately ripped (confidence 10) [022E65C5] (AR v2)
Track 9 accurately ripped (confidence 10) [85187259] (AR v2)
Track 10 accurately ripped (confidence 10) [2878200A] (AR v2)
Track 11 accurately ripped (confidence 10) [D41FECBD] (AR v2)
Track 12 accurately ripped (confidence 10) [0C267703] (AR v2)
Track 13 accurately ripped (confidence 10) [3BD9BE4B] (AR v2)
Track 14 accurately ripped (confidence 10) [95FA1179] (AR v2)
Track 15 accurately ripped (confidence 10) [AEF904D9] (AR v2)
Track 16 accurately ripped (confidence 10) [62A38C54] (AR v2)
Track 17 accurately ripped (confidence 10) [68B2E5B1] (AR v2)
Track 18 accurately ripped (confidence 10) [9A75B1AE] (AR v2)
Track 19 accurately ripped (confidence 10) [C5C0A3B3] (AR v2)
Track 20 accurately ripped (confidence 10) [D7F21A75] (AR v2)
Track 21 accurately ripped (confidence 10) [B2625A06] (AR v2)
Track 22 accurately ripped (confidence 10) [9EF09D2E] (AR v2)
Track 23 accurately ripped (confidence 10) [70ABDCDA] (AR v2)
Track 24 accurately ripped (confidence 10) [6A7C4C56] (AR v2)
Track 25 accurately ripped (confidence 10) [E22883AD] (AR v2)

All tracks accurately ripped

End of status report

–– CUETools DB Plugin V2.1.6

[CTDB TOCID: CwsvjQBZlQv3n.Fhu1fDTmc3KiU-] found
Submit result: CwsvjQBZlQv3n.Fhu1fDTmc3KiU- has been confirmed
Track | CTDB Status
1 | (20/20) Accurately ripped
2 | (20/20) Accurately ripped
3 | (20/20) Accurately ripped
4 | (20/20) Accurately ripped
5 | (20/20) Accurately ripped
6 | (20/20) Accurately ripped
7 | (20/20) Accurately ripped
8 | (20/20) Accurately ripped
9 | (20/20) Accurately ripped
10 | (20/20) Accurately ripped
11 | (20/20) Accurately ripped
12 | (20/20) Accurately ripped
13 | (20/20) Accurately ripped
14 | (20/20) Accurately ripped
15 | (20/20) Accurately ripped
16 | (20/20) Accurately ripped
17 | (20/20) Accurately ripped
18 | (20/20) Accurately ripped
19 | (20/20) Accurately ripped
20 | (20/20) Accurately ripped
21 | (20/20) Accurately ripped
22 | (20/20) Accurately ripped
23 | (20/20) Accurately ripped
24 | (20/20) Accurately ripped
25 | (20/20) Accurately ripped


==== Log checksum 08E0BA0B05C983F365AEA74F14FA5AD0C7E437593DF7979EC358D54117D9B92F ====

Palladian Ensemble - A Choice Collection: Music of Purcell's London (1995)

Thanks to the original releaser