Subcategories
Please register here if you want to download anything!

If domain in your address bar is different from the list below
PLEASE LEAVE THAT SITE IMMEDIATELY
❗IT'S A DANGEROUS FAKE❗



Spicy Magazines for Men! ;-)

Pandelis Karayorgis, Eric Pakula - Lines (1995)

Posted By: v3122
Pandelis Karayorgis, Eric Pakula - Lines (1995)

Pandelis Karayorgis - Eric Pakula - Lines
EAC | Flac(Image) + Cue + Log & MP3 CBR 320Kbps
Accurate Records, AC-5014 | ~ 282 or 159 Mb | Artwork -> 194 Mb
Free jazz

~ Recorded at 35 Brookline Street, Apt. 15, Cambridge, Massachusetts 03/16/1995-03/21/1995 ~

Lines should have been subtitled "A Tribute to Lennie Tristano" because that's what this CD essentially is. Co-leading this March 1995 date, pianist Pandelis Karayorgis and alto saxman Eric Pakula embrace seven of Tristano's compositions (including "April," "Dreams," "Two Not One" and "Baby") along with Warne Marsh's "Background Music," Lee Konitz's "Kary's Trance" and some pieces of their own. Throughout the album, Karayorgis and Pakula's very different outlooks make for some interesting contrasts. While Karayorgis refuses to be the least bit sentimental, Pakula has no problem being lyrical one minute and intellectual the next. One thing they share, of course, is a healthy appreciation of Tristano's innovations, but thankfully, they do a great deal of interpreting instead of placing his music under a sheet of glass and treating it like a museum piece. The end result is an album that isn't overly accessible, but is certainly rewarding if you're willing to accept the improvisers on their own terms.

by Alex Henderson, allmusic
Pandelis Karayorgis - Eric Pakula - Lines:

Pandelis Karayorgis, Eric Pakula - Lines (1995)

Tracklist:

1. 317 E. 32nd Street
2. Two Not One
3. King Oliver
4. Dark Song
5. Featherbed
6. Kary's Trance
7. Mishing (for Misha Mengelberg)
8. April - All About You
9. Lament
10. In Time
11. Dreams
12. Out & Out
13. Baby
14. Background Music
(There is a difference between the CD and the cover)

Musicians:

Eric Pakula - alto sax
Pandelis Karayorgis - piano
Nate McBride - bass (3,7,10,13)
Jonathan Robinson - bass (2,5,8,11,14)
Eric Rosenthal - drums (2,8,14)
John McLellan - drums (3-5,7,10,11,13)


Exact Audio Copy V0.99 prebeta 5 from 4. May 2009

EAC extraction logfile from 13. March 2011, 23:46

Karayorgis - Pakula / Lines

Used drive : TSSTcorpCDDVDW SH-S222A Adapter: 1 ID: 0

Read mode : Secure
Utilize accurate stream : Yes
Defeat audio cache : Yes
Make use of C2 pointers : No

Read offset correction : 6
Overread into Lead-In and Lead-Out : No
Fill up missing offset samples with silence : Yes
Delete leading and trailing silent blocks : No
Null samples used in CRC calculations : Yes
Used interface : Installed external ASPI interface
Gap handling : Appended to previous track

Used output format : User Defined Encoder
Selected bitrate : 768 kBit/s
Quality : High
Add ID3 tag : No
Command line compressor : C:\Tool\Compress\FLAC\flac.exe
Additional command line options : -8 -V -T "ARTIST=%a" -T "TITLE=%t" -T "ALBUM=%g" -T "DATE=%y" -T "TRACKNUMBER=%n" -T "TOTALTRACKS=%x" -T "GENRE=%m" -T "ALBUM ARTIST=%v" -T "COMMENT=EAC V0.99 prebeta 5, Secure Mode, Test & Copy, AccurateRip, FLAC -8" %s


TOC of the extracted CD

Track | Start | Length | Start sector | End sector
––––––––––––––––––––––––––––-
1 | 0:00.50 | 3:51.35 | 50 | 17409
2 | 3:52.10 | 5:27.20 | 17410 | 41954
3 | 9:19.30 | 5:17.45 | 41955 | 65774
4 | 14:37.00 | 5:04.35 | 65775 | 88609
5 | 19:41.35 | 2:35.40 | 88610 | 100274
6 | 22:17.00 | 3:41.20 | 100275 | 116869
7 | 25:58.20 | 4:39.52 | 116870 | 137846
8 | 30:37.72 | 8:17.33 | 137847 | 175154
9 | 38:55.30 | 5:40.02 | 175155 | 200656
10 | 44:35.32 | 3:49.63 | 200657 | 217894
11 | 48:25.20 | 4:28.42 | 217895 | 238036
12 | 52:53.62 | 4:44.05 | 238037 | 259341
13 | 57:37.67 | 5:57.35 | 259342 | 286151
14 | 63:35.27 | 3:43.53 | 286152 | 302929


Track 1

Filename C:\! UPLOAD\Pandelis Karayorgis - Eric Pakula - Lines (1995) [FLAC]\01 - 317 E.32nd Street.wav

Pre-gap length 0:00:02.66

Peak level 74.1 %
Track quality 100.0 %
Test CRC ADC60F6B
Copy CRC ADC60F6B
Track not present in AccurateRip database
Copy OK

Track 2

Filename C:\! UPLOAD\Pandelis Karayorgis - Eric Pakula - Lines (1995) [FLAC]\02 - Two Not One.wav

Pre-gap length 0:00:01.66

Peak level 72.0 %
Track quality 100.0 %
Test CRC A326B895
Copy CRC A326B895
Track not present in AccurateRip database
Copy OK

Track 3

Filename C:\! UPLOAD\Pandelis Karayorgis - Eric Pakula - Lines (1995) [FLAC]\03 - King Olivier.wav

Pre-gap length 0:00:01.66

Peak level 63.0 %
Track quality 100.0 %
Test CRC BE32F383
Copy CRC BE32F383
Track not present in AccurateRip database
Copy OK

Track 4

Filename C:\! UPLOAD\Pandelis Karayorgis - Eric Pakula - Lines (1995) [FLAC]\04 - Dark Song.wav

Pre-gap length 0:00:01.66

Peak level 79.9 %
Track quality 100.0 %
Test CRC 4813EB37
Copy CRC 4813EB37
Track not present in AccurateRip database
Copy OK

Track 5

Filename C:\! UPLOAD\Pandelis Karayorgis - Eric Pakula - Lines (1995) [FLAC]\05 - Featherbed.wav

Pre-gap length 0:00:01.68

Peak level 79.4 %
Track quality 100.0 %
Test CRC 603F7F7D
Copy CRC 603F7F7D
Track not present in AccurateRip database
Copy OK

Track 6

Filename C:\! UPLOAD\Pandelis Karayorgis - Eric Pakula - Lines (1995) [FLAC]\06 - Kary's Trance.wav

Pre-gap length 0:00:01.66

Peak level 40.6 %
Track quality 100.0 %
Test CRC 1D7DBF53
Copy CRC 1D7DBF53
Track not present in AccurateRip database
Copy OK

Track 7

Filename C:\! UPLOAD\Pandelis Karayorgis - Eric Pakula - Lines (1995) [FLAC]\07 - Mishing.wav

Pre-gap length 0:00:01.66

Peak level 79.4 %
Track quality 100.0 %
Test CRC EB0A1B90
Copy CRC EB0A1B90
Track not present in AccurateRip database
Copy OK

Track 8

Filename C:\! UPLOAD\Pandelis Karayorgis - Eric Pakula - Lines (1995) [FLAC]\08 - April - All About You.wav

Pre-gap length 0:00:01.66

Peak level 100.0 %
Track quality 99.9 %
Test CRC 9143FFE4
Copy CRC 9143FFE4
Track not present in AccurateRip database
Copy OK

Track 9

Filename C:\! UPLOAD\Pandelis Karayorgis - Eric Pakula - Lines (1995) [FLAC]\09 - Lament.wav

Pre-gap length 0:00:01.66

Peak level 78.9 %
Track quality 99.9 %
Test CRC C7332173
Copy CRC C7332173
Track not present in AccurateRip database
Copy OK

Track 10

Filename C:\! UPLOAD\Pandelis Karayorgis - Eric Pakula - Lines (1995) [FLAC]\10 - In Time.wav

Pre-gap length 0:00:01.66

Peak level 46.1 %
Track quality 100.0 %
Test CRC 9463904E
Copy CRC 9463904E
Track not present in AccurateRip database
Copy OK

Track 11

Filename C:\! UPLOAD\Pandelis Karayorgis - Eric Pakula - Lines (1995) [FLAC]\11 - Dreams.wav

Pre-gap length 0:00:01.66

Peak level 40.5 %
Track quality 100.0 %
Test CRC 85A670FF
Copy CRC 85A670FF
Track not present in AccurateRip database
Copy OK

Track 12

Filename C:\! UPLOAD\Pandelis Karayorgis - Eric Pakula - Lines (1995) [FLAC]\12 - Out & Out.wav

Pre-gap length 0:00:01.66

Peak level 63.0 %
Track quality 100.0 %
Test CRC 9103D7E4
Copy CRC 9103D7E4
Track not present in AccurateRip database
Copy OK

Track 13

Filename C:\! UPLOAD\Pandelis Karayorgis - Eric Pakula - Lines (1995) [FLAC]\13 - Baby.wav

Pre-gap length 0:00:01.66

Peak level 75.3 %
Track quality 100.0 %
Test CRC 7F067EAF
Copy CRC 7F067EAF
Track not present in AccurateRip database
Copy OK

Track 14

Filename C:\! UPLOAD\Pandelis Karayorgis - Eric Pakula - Lines (1995) [FLAC]\14 - Background Music.wav

Pre-gap length 0:00:01.66

Peak level 48.8 %
Track quality 100.0 %
Test CRC BF4CFAA4
Copy CRC BF4CFAA4
Track not present in AccurateRip database
Copy OK


None of the tracks are present in the AccurateRip database

No errors occurred

End of status report


[CUETools log; Date: 27.06.2019 9:36:04; Version: 2.1.4]
Pregap length 00:00:50.
[AccurateRip ID: 00225100-017074eb-dc0fc70e] found.
Track [ CRC | V2 ] Status
01 [c2caffac|cca5be7c] (1+1/2) Accurately ripped
02 [66a65681|4c8e7753] (1+1/2) Accurately ripped
03 [3f230807|3e3971ac] (1+1/2) Accurately ripped
04 [074722ee|15a99870] (1+1/2) Accurately ripped
05 [713cce3f|cf96c7e8] (1+1/2) Accurately ripped
06 [72b9ad1d|3e38082c] (1+1/2) Accurately ripped
07 [54028989|2c331adf] (1+1/2) Accurately ripped
08 [034fcafb|7ec423af] (1+1/2) Accurately ripped
09 [3f3b3109|e2bf8929] (1+1/2) Accurately ripped
10 [1ca77818|3dd2e273] (1+1/2) Accurately ripped
11 [c2fbdd16|8164dc1c] (1+1/2) Accurately ripped
12 [26348dcd|11573aa1] (1+1/2) Accurately ripped
13 [dd97e44f|a6dd7156] (1+1/2) Accurately ripped
14 [6e3bd776|5e38d030] (1+1/2) Accurately ripped

Track Peak [ CRC32 ] [W/O NULL] [ LOG ]
– 100,0 [D64F8756] [B1374EC1]
01 74,1 [ADC60F6B] [F9175147] CRC32
02 72,0 [A326B895] [A7565A9A] CRC32
03 63,0 [BE32F383] [7AFE55BA] CRC32
04 79,9 [4813EB37] [CAEE9CA8] CRC32
05 79,4 [603F7F7D] [6DC75B7D] CRC32
06 40,6 [1D7DBF53] [E5E232D5] CRC32
07 79,4 [EB0A1B90] [0921F1CB] CRC32
08 100,0 [9143FFE4] [FBC2BBA4] CRC32
09 78,9 [C7332173] [2D71AB51] CRC32
10 46,1 [9463904E] [14029668] CRC32
11 40,5 [85A670FF] [5B275538] CRC32
12 63,0 [9103D7E4] [61FEB495] CRC32
13 75,3 [7F067EAF] [81B514FC] CRC32
14 48,8 [BF4CFAA4] [96809E0F] CRC32


Pandelis Karayorgis, Eric Pakula - Lines (1995)

All thanks go to the original releaser

Pandelis Karayorgis in my Blog

Download Pandelis Karayorgis - Eric Pakula - Lines: