Subcategories

Panta Rei 2.0 - Last Ticket To Heaven (2016) [Digipak]

Posted By: Andi_Deris
Panta Rei 2.0 - Last Ticket To Heaven (2016) [Digipak]

Panta Rei 2.0 - Last Ticket To Heaven (2016) [Digipak]
EAC Rip | FLAC: Tracks+Cue+Log | 271 Mb | MP3 CBR 320 kbps | 108 Mb | Scans | 55 Mb | Time: 37:11
Fly Mama | KNG 1601
Classic Rock, Hard Rock, Blues Rock

With roots and hearts in the seventies rock and blues scene, this Swedish band takes the inspiration from a wide area of music. The groove is solid and the lyrics are mature, these guys have been around.

Panta Rei 2.0 - Last Ticket To Heaven (2016) [Digipak]




Track Listing

01. It's So Easy (03:54)
02. A Day In My House (03:53)
03. No Party (05:11)
04. The Tunnel (05:19)
05. She's Gone (04:37)
06. Venomous Women (04:11)
07. Town To Town (07:26)
08. So Beautiful (02:40)

Produced by Myron Bernard

The Band

• Georg Trolin - vocal, harmonica
• Thomas Rotemar - guitar
• Mats Aronsson - bass, guitar, backing vocal
• Per Ingels - drums, percussion

*****
• Bernd Schmid - rhythm guitar (4, 5, 6, 8), backing vocal (6)
• Isabella A Johansson - backing vocal (1, 4, 5)
• Gunnel Fred - cello (8)
• Hanna Fred Ekman - cello (8)
• Alexander Ingels - string arrangements, keyboard (8)

Exact Audio Copy V1.0 beta 3 from 29. August 2011

EAC extraction logfile from 15. May 2017, 0:10

Panta Rei 2.0 / Last Ticket to Heaven

Used drive : _NEC DVD_RW ND-3540A Adapter: 1 ID: 0

Read mode : Secure
Utilize accurate stream : Yes
Defeat audio cache : Yes
Make use of C2 pointers : No

Read offset correction : 48
Overread into Lead-In and Lead-Out : No
Fill up missing offset samples with silence : Yes
Delete leading and trailing silent blocks : No
Null samples used in CRC calculations : Yes
Used interface : Native Win32 interface for Win NT & 2000
Gap handling : Appended to previous track

Used output format : User Defined Encoder
Selected bitrate : 1024 kBit/s
Quality : High
Add ID3 tag : Yes
Command line compressor : C:\Program Files (x86)\Exact Audio Copy\FLAC\FLAC.EXE
Additional command line options : -6 -V -T "ARTIST=%artist%" -T "TITLE=%title%" -T "ALBUM=%albumtitle%" -T "DATE=%year%" -T "TRACKNUMBER=%tracknr%" -T "GENRE=%genre%" -T "COMMENT=%comment%" %hascover%–picture="%coverfile%"%hascover% %source% -o %dest%


TOC of the extracted CD

Track | Start | Length | Start sector | End sector
––––––––––––––––––––––––––––-
1 | 0:00.00 | 3:54.05 | 0 | 17554
2 | 3:54.05 | 3:52.59 | 17555 | 35013
3 | 7:46.64 | 5:10.42 | 35014 | 58305
4 | 12:57.31 | 5:19.00 | 58306 | 82230
5 | 18:16.31 | 4:36.69 | 82231 | 102999
6 | 22:53.25 | 4:11.29 | 103000 | 121853
7 | 27:04.54 | 7:26.04 | 121854 | 155307
8 | 34:30.58 | 2:39.32 | 155308 | 167264


Track 1

Filename F:\Music\olaf_alien\Panta Rei 2.0 - Last Ticket to Heaven (2016, Fly Mama)\01 - It's So Easy.wav

Pre-gap length 0:00:02.00

Peak level 98.8 %
Extraction speed 3.5 X
Track quality 99.9 %
Test CRC 1BEDA3F9
Copy CRC 1BEDA3F9
Track not present in AccurateRip database
Copy OK

Track 2

Filename F:\Music\olaf_alien\Panta Rei 2.0 - Last Ticket to Heaven (2016, Fly Mama)\02 - A Day In My House.wav

Peak level 98.8 %
Extraction speed 4.7 X
Track quality 100.0 %
Test CRC C661680F
Copy CRC C661680F
Track not present in AccurateRip database
Copy OK

Track 3

Filename F:\Music\olaf_alien\Panta Rei 2.0 - Last Ticket to Heaven (2016, Fly Mama)\03 - No Party.wav

Peak level 98.8 %
Extraction speed 5.4 X
Track quality 100.0 %
Test CRC CA3A1191
Copy CRC CA3A1191
Track not present in AccurateRip database
Copy OK

Track 4

Filename F:\Music\olaf_alien\Panta Rei 2.0 - Last Ticket to Heaven (2016, Fly Mama)\04 - The Tunnel.wav

Peak level 98.8 %
Extraction speed 5.9 X
Track quality 100.0 %
Test CRC DF6DD432
Copy CRC DF6DD432
Track not present in AccurateRip database
Copy OK

Track 5

Filename F:\Music\olaf_alien\Panta Rei 2.0 - Last Ticket to Heaven (2016, Fly Mama)\05 - She's Gone.wav

Peak level 98.8 %
Extraction speed 6.1 X
Track quality 100.0 %
Test CRC C549A8D9
Copy CRC C549A8D9
Track not present in AccurateRip database
Copy OK

Track 6

Filename F:\Music\olaf_alien\Panta Rei 2.0 - Last Ticket to Heaven (2016, Fly Mama)\06 - Venomous Women.wav

Peak level 98.8 %
Extraction speed 6.5 X
Track quality 100.0 %
Test CRC 4DB5900A
Copy CRC 4DB5900A
Track not present in AccurateRip database
Copy OK

Track 7

Filename F:\Music\olaf_alien\Panta Rei 2.0 - Last Ticket to Heaven (2016, Fly Mama)\07 - Town To Town.wav

Peak level 98.8 %
Extraction speed 7.2 X
Track quality 100.0 %
Test CRC 57901077
Copy CRC 57901077
Track not present in AccurateRip database
Copy OK

Track 8

Filename F:\Music\olaf_alien\Panta Rei 2.0 - Last Ticket to Heaven (2016, Fly Mama)\08 - So Beautiful.wav

Peak level 49.9 %
Extraction speed 6.7 X
Track quality 100.0 %
Test CRC DEB08503
Copy CRC DEB08503
Track not present in AccurateRip database
Copy OK


None of the tracks are present in the AccurateRip database

No errors occurred

End of status report

–– CUETools DB Plugin V2.1.4

[CTDB TOCID: 5KQlt92a9ZD3wb2eKMXcPPEga8Y-] found
Submit result: 5KQlt92a9ZD3wb2eKMXcPPEga8Y- has been confirmed
Track | CTDB Status
1 | (1/1) Accurately ripped
2 | (1/1) Accurately ripped
3 | (1/1) Accurately ripped
4 | (1/1) Accurately ripped
5 | (1/1) Accurately ripped
6 | (1/1) Accurately ripped
7 | (1/1) Accurately ripped
8 | (1/1) Accurately ripped


==== Log checksum 3182F9D4CC7F58BC7FAFE7A1051E1EB6647B648E2504E87E3D781801057C1DBC ====


Many thanks to the original uploader: Olaf_alien