Tags
Language
Tags

Panzerballett - X-MAS Death Jazz (2017)

Posted By: gribovar
Panzerballett - X-MAS Death Jazz (2017)

Panzerballett - X-MAS Death Jazz (2017)
EAC Rip | FLAC (tracks+.cue+log) - 479 MB | MP3 CBR 320 kbps (LAME 3.93) - 165 MB | Covers - 85 MB
Genre: Progressive/Jazz Rock | RAR 3% Rec. | Label: Gentle Art of Music (GAOM 052)

On their album X-Mas Death Jazz Panzerballett this time utilize universally known Christmas songs from all over the world such as White Christmas, German classic Leise rieselt der Schnee as well as Last Christmas. However, the jazz-metal impresarios show no mercy so that, except for the basic tone progression, no stone is left unturned – none whatsoever. Once again Panzerballett utilize their self-perfected concept of “Verkrassung” (“extremization”) and thus create jazz-metal monsters that fuse technical force with the warmth of ease. The virtuoso skills of Jan Zehrfeld (guitar), Joe Doblhofer (guitar), Alexander von Hagke (saxophone), Heiko Jung (bass) and Sebastian Lanser (drums) add to a record that does not only have something to say but is also an enormous amount of fun. X-Mas Death Jazz can be summed up in few words: Hooray, de-Christmastized Christmas! Panzerballett have evolved from the status of the insider’s tip a long time ago, which is why it is no surprise that in guest musicians like Mattias IA Eklundh (Freak Kitchen, Steve Vai), Mike Keneally (Frank Zappa, Joe Satriani), Jen Majura (Evanescence) or Steffen Kummerer (Obscura) a raft of glitzy names has agreed to be part of X-Mas Death Jazz.

Tracklist:
01. White Christmas
02. Kling, Glöckchen
03. Little Drummer Boy
04. Es kommt bald
05. Last Christmas
06. Rudolph, The Red-Nosed Reindeer
07. For Whom The Jingle Bells Toll
08. Let It Snow

Bonus - instrumental versions:
09. White Christmas
10. Rudolph, The Red-Nosed Reindeer
11. Es kommt bald
12. Let It Snow

Total time: 01:09:25

Exact Audio Copy V1.0 beta 4 from 7. December 2014

EAC extraction logfile from 16. September 2019, 21:13

Panzerballett / X-Mas Death Jazz

Used drive : ATAPI iHAS124 F Adapter: 1 ID: 0

Read mode : Secure
Utilize accurate stream : Yes
Defeat audio cache : Yes
Make use of C2 pointers : No

Read offset correction : 6
Overread into Lead-In and Lead-Out : No
Fill up missing offset samples with silence : Yes
Delete leading and trailing silent blocks : No
Null samples used in CRC calculations : Yes
Used interface : Native Win32 interface for Win NT & 2000
Gap handling : Appended to previous track

Used output format : User Defined Encoder
Selected bitrate : 896 kBit/s
Quality : High
Add ID3 tag : No
Command line compressor : C:\Program Files\flac-1.3.2-win\win64\flac.exe
Additional command line options : -8 -V -T "ARTIST=%artist%" -T "TITLE=%title%" -T "ALBUM=%albumtitle%" -T "DATE=%year%" -T "TRACKNUMBER=%tracknr%" -T "GENRE=%genre%" -T "COMMENT=ripped by vp_sunset" %source% -o %dest%


TOC of the extracted CD

Track | Start | Length | Start sector | End sector
––––––––––––––––––––––––––––-
1 | 0:00.00 | 5:33.16 | 0 | 24990
2 | 5:33.16 | 6:46.42 | 24991 | 55482
3 | 12:19.58 | 5:58.05 | 55483 | 82337
4 | 18:17.63 | 5:45.35 | 82338 | 108247
5 | 24:03.23 | 7:00.17 | 108248 | 139764
6 | 31:03.40 | 5:17.24 | 139765 | 163563
7 | 36:20.64 | 5:48.70 | 163564 | 189733
8 | 42:09.59 | 5:21.40 | 189734 | 213848
9 | 47:31.24 | 5:32.63 | 213849 | 238811
10 | 53:04.12 | 5:15.68 | 238812 | 262504
11 | 58:20.05 | 5:45.47 | 262505 | 288426
12 | 64:05.52 | 5:19.00 | 288427 | 312351


Track 1

Filename C:\_EAC\01. White Christmas.wav

Pre-gap length 0:00:02.00

Peak level 100.0 %
Extraction speed 6.2 X
Track quality 100.0 %
Test CRC D2F73BD9
Copy CRC D2F73BD9
Accurately ripped (confidence 7) [828E4E7E] (AR v2)
Copy OK

Track 2

Filename C:\_EAC\02. Kling, Glöckchen.wav

Peak level 100.0 %
Extraction speed 7.2 X
Track quality 100.0 %
Test CRC 4A933746
Copy CRC 4A933746
Accurately ripped (confidence 7) [9B4224FD] (AR v2)
Copy OK

Track 3

Filename C:\_EAC\03. Little Drummer Boy.wav

Pre-gap length 0:00:00.61

Peak level 98.7 %
Extraction speed 7.9 X
Track quality 100.0 %
Test CRC 45F129C5
Copy CRC 45F129C5
Accurately ripped (confidence 7) [F70580E2] (AR v2)
Copy OK

Track 4

Filename C:\_EAC\04. Es Kommt Bald.wav

Peak level 98.6 %
Extraction speed 8.6 X
Track quality 100.0 %
Test CRC 554A2C6E
Copy CRC 554A2C6E
Accurately ripped (confidence 7) [B2F5C60B] (AR v2)
Copy OK

Track 5

Filename C:\_EAC\05. Last Christmas.wav

Peak level 98.4 %
Extraction speed 9.3 X
Track quality 100.0 %
Test CRC B3232A01
Copy CRC B3232A01
Accurately ripped (confidence 7) [1EA06D5D] (AR v2)
Copy OK

Track 6

Filename C:\_EAC\06. Rudolph, The Red Nosed Reindeer.wav

Pre-gap length 0:00:01.09

Peak level 99.7 %
Extraction speed 9.7 X
Track quality 100.0 %
Test CRC 8AAB6592
Copy CRC 8AAB6592
Accurately ripped (confidence 7) [9D39D494] (AR v2)
Copy OK

Track 7

Filename C:\_EAC\07. For Whom The Jingle Bells Toll.wav

Peak level 99.2 %
Extraction speed 9.0 X
Track quality 99.9 %
Test CRC 048AA410
Copy CRC 048AA410
Accurately ripped (confidence 7) [8F3AB8C6] (AR v2)
Copy OK

Track 8

Filename C:\_EAC\08. Let It Snow.wav

Pre-gap length 0:00:01.72

Peak level 99.3 %
Extraction speed 10.6 X
Track quality 100.0 %
Test CRC 29D07864
Copy CRC 29D07864
Accurately ripped (confidence 7) [A3180226] (AR v2)
Copy OK

Track 9

Filename C:\_EAC\09. White Christmas (Instrumental).wav

Pre-gap length 0:00:03.92

Peak level 100.0 %
Extraction speed 11.0 X
Track quality 100.0 %
Test CRC AAB72650
Copy CRC AAB72650
Accurately ripped (confidence 7) [51D1DDE7] (AR v2)
Copy OK

Track 10

Filename C:\_EAC\10. Rudolph, The Red Nosed Reindeer (Instrumental).wav

Peak level 99.4 %
Extraction speed 11.4 X
Track quality 100.0 %
Test CRC 7E3B99E4
Copy CRC 7E3B99E4
Accurately ripped (confidence 7) [BC575CEF] (AR v2)
Copy OK

Track 11

Filename C:\_EAC\11. Es Kommt Bald (Instrumental).wav

Peak level 99.3 %
Extraction speed 10.5 X
Track quality 99.9 %
Test CRC CAEEC911
Copy CRC CAEEC911
Accurately ripped (confidence 7) [40291790] (AR v2)
Copy OK

Track 12

Filename C:\_EAC\12. Let It Snow (Instrumental).wav

Peak level 98.3 %
Extraction speed 12.2 X
Track quality 100.0 %
Test CRC 36A12AD7
Copy CRC 36A12AD7
Accurately ripped (confidence 7) [E8EE4259] (AR v2)
Copy OK


All tracks accurately ripped

No errors occurred

End of status report

–– CUETools DB Plugin V2.1.4

[CTDB TOCID: kvfJ2dWoy3ytyKWbi.M97j5hbL4-] found
Submit result: kvfJ2dWoy3ytyKWbi.M97j5hbL4- has been confirmed
Track | CTDB Status
1 | (29/30) Accurately ripped
2 | (29/30) Accurately ripped
3 | (29/30) Accurately ripped
4 | (29/30) Accurately ripped
5 | (29/30) Accurately ripped
6 | (29/30) Accurately ripped
7 | (29/30) Accurately ripped
8 | (29/30) Accurately ripped
9 | (29/30) Accurately ripped
10 | (29/30) Accurately ripped
11 | (29/30) Accurately ripped
12 | (28/30) Accurately ripped


==== Log checksum 17E7285CF883E6B2FD1E5A403D10CF45D2C4FD1AD2D4D85A5275D47CC2ED36AB ====

[CUETools log; Date: 17.09.2019 19:10:47; Version: 2.1.4]
[CTDB TOCID: kvfJ2dWoy3ytyKWbi.M97j5hbL4-] found.
Track | CTDB Status
1 | (30/31) Accurately ripped
2 | (30/31) Accurately ripped
3 | (30/31) Accurately ripped
4 | (30/31) Accurately ripped
5 | (30/31) Accurately ripped
6 | (30/31) Accurately ripped
7 | (30/31) Accurately ripped
8 | (30/31) Accurately ripped
9 | (30/31) Accurately ripped
10 | (30/31) Accurately ripped
11 | (30/31) Accurately ripped
12 | (29/31) Accurately ripped
[AccurateRip ID: 001fbd44-0126a772-aa10440c] found.
Track [ CRC | V2 ] Status
01 [2df52976|828e4e7e] (0+7/7) Accurately ripped
02 [e64bc22e|9b4224fd] (0+7/7) Accurately ripped
03 [11524dc3|f70580e2] (0+7/7) Accurately ripped
04 [bb492793|b2f5c60b] (0+7/7) Accurately ripped
05 [1606c43b|1ea06d5d] (0+7/7) Accurately ripped
06 [edb158d6|9d39d494] (0+7/7) Accurately ripped
07 [9115f8e2|8f3ab8c6] (0+7/7) Accurately ripped
08 [9c8f266d|a3180226] (0+7/7) Accurately ripped
09 [4e0bec26|51d1dde7] (0+7/7) Accurately ripped
10 [1c4095a1|bc575cef] (0+7/7) Accurately ripped
11 [1b4747d5|40291790] (0+7/7) Accurately ripped
12 [da142ed0|e8ee4259] (0+7/7) Accurately ripped

Track Peak [ CRC32 ] [W/O NULL] [ LOG ]
– 100,0 [EEC86D6A] [ACB10ADB]
01 100,0 [D2F73BD9] [61C7BE69] CRC32
02 100,0 [4A933746] [68EDE6BF] CRC32
03 98,7 [45F129C5] [2A92256D] CRC32
04 98,6 [554A2C6E] [BB700746] CRC32
05 98,4 [B3232A01] [E91FC436] CRC32
06 99,7 [8AAB6592] [C99F7C48] CRC32
07 99,2 [048AA410] [EB4E6726] CRC32
08 99,3 [29D07864] [D6793647] CRC32
09 100,0 [AAB72650] [EB27AB83] CRC32
10 99,4 [7E3B99E4] [DA3F9737] CRC32
11 99,3 [CAEEC911] [44E550DA] CRC32
12 98,3 [36A12AD7] [DBE0DB40] CRC32

Thanks to vp_sunset

See also:
Panzerballett - Tank Goodness (2012)