Tags
Language
Tags

Paolo Arrivabeni, Orchestra Internazionale d’Italia - Rossini: Robert Bruce (2003)

Posted By: ArlegZ
Paolo Arrivabeni, Orchestra Internazionale d’Italia - Rossini: Robert Bruce (2003)

Paolo Arrivabeni, Orchestra Internazionale d’Italia - Rossini: Robert Bruce (2003)
EAC | FLAC | Image (Cue & Log) ~ 634 Mb | Total time: 77:15+67:55 | Scans included
Classical | Label: Dynamic | # 421/1-2 | Recorded: 2002

After the success with critics and audiences of Ivanhoé (CDS 397/1-2), here is a new collaboration between Dynamic and the Valle d’Itria Festival to the publication of another Rossinian pastiche: Robert Bruce, first staged at the Paris Opera in 1846. The most interesting aspect of Robert Bruce was that Rossini, having left his retreat, decided to borrow material especially from La Donna del Lago, a contradictory work to which, thanks to the additions from other scores, he seemed to give a new equilibrium and a second chance. But it would be incorrect to say that Robert Bruce is an adaptation of that opera: in it we find passages from Zelmira, Mosé, Torvaldo e Dorlinska, Maometto II and Armida, skilfully put together by the composer Louis Niedermeyer.
The cast of this production includes the famous Georgian soprano Iano Tamar and the French baritone Nicolas Rivenq. On the podium is Paolo Arrivabeni.

Performer:
Robert Bruce – Nicolas Rivenq
Marie – Iano Tamar
Arthur – Simon Edwards
Edouard – Davide Cicchetti
Douglas – Massimiliano Chiarolla
Nelly – Inga Balabanova
Morton – Ramaz Chikviladze
Dickson – Pietro Naviglio
A page – Tiziana Portoghese
A bard – Pietro Naviglio
Bratislava Chamber Choir
Orchestra Internazionale d’Italia
Conductor - Paolo Arrivabeni

Track List:
CD1:
01. Overture
02. Act I. Robert! Robert! (Scots)
03. Dieu sur leur souffrance (Bruce)
04. A ma fille, je l'espere (Douglas)
05. Marie! (Arthur)
06. Calme et pensive plage (Marie)
07. Moi te perdre! arret funeste! (Arthur)
08. Ciel! Un anglais! (Bruce)
09. Ce sont les clans de la montagne (Nelly)
10. Marche
11. La gloire est belle (Edouard)
12. Sire! Douglas le Noir (Morton)
13. Ah! Pour lui point de clemence! (Edouard)
14. Va, triomphe! (Edouard)
15. Act II. Le roi sommeile (Douglas)
16. Que ton ame, si noble, si bonne (Douglas)
17. Oh! noble pere! (Marie)
18. O saint amour, premiere flamme! (Marie)
CD2:
01. Les Anglais! (Nelly)
02. Loyale famille! (Bruce)
03. Sort funeste! (Bruce)
04. Dieu te punisse! (Arthur)
05. Ingrate, adieu! (Arthur)
06. La guerre sans treve (Bruce)
07. Que l'hymne du barde (Bardes)
08. Act III. Oui, demain l'Ecossais (Bruce)
09. Anges sur moi penches (Bruce)
10. Cette route souterraine (Douglas)
11. Buvons, buvons (Les chevaliers)
12. Jeune fille de la montagne (Les chevaliers)
13. Sire! Les Ecossais (Morton)
14. Puisqu'un destin barbare (Marie)
15. Viens! Barbare (Marie)
16. Arrete et pour ta vie (Marie)


Exact Audio Copy V1.3 from 2. September 2016

EAC extraction logfile from 2. November 2019, 10:21

Paolo Arrivabeni, Orchestra Internazionale d’Italia / Rossini - Robert Bruce CD1

Used drive : PIONEER DVD-RW DVR-218L Adapter: 1 ID: 0

Read mode : Secure
Utilize accurate stream : Yes
Defeat audio cache : Yes
Make use of C2 pointers : No

Read offset correction : 6
Overread into Lead-In and Lead-Out : No
Fill up missing offset samples with silence : Yes
Delete leading and trailing silent blocks : No
Null samples used in CRC calculations : Yes
Used interface : Native Win32 interface for Win NT & 2000

Used output format : User Defined Encoder
Selected bitrate : 128 kBit/s
Quality : High
Add ID3 tag : No
Command line compressor : C:\Program Files\Exact Audio Copy\FLAC\FLAC.EXE
Additional command line options : -V -8 -T "Date=%year%" -T "Genre=%genre%" %source%


TOC of the extracted CD

Track | Start | Length | Start sector | End sector
––––––––––––––––––––––––––––-
1 | 0:00.00 | 6:19.22 | 0 | 28446
2 | 6:19.22 | 2:55.68 | 28447 | 41639
3 | 9:15.15 | 5:13.67 | 41640 | 65181
4 | 14:29.07 | 5:53.18 | 65182 | 91674
5 | 20:22.25 | 1:23.47 | 91675 | 97946
6 | 21:45.72 | 5:37.33 | 97947 | 123254
7 | 27:23.30 | 6:02.17 | 123255 | 150421
8 | 33:25.47 | 3:31.03 | 150422 | 166249
9 | 36:56.50 | 7:06.47 | 166250 | 198246
10 | 44:03.22 | 2:03.33 | 198247 | 207504
11 | 46:06.55 | 4:50.27 | 207505 | 229281
12 | 50:57.07 | 1:10.10 | 229282 | 234541
13 | 52:07.17 | 3:08.73 | 234542 | 248714
14 | 55:16.15 | 3:59.60 | 248715 | 266699
15 | 59:16.00 | 3:06.42 | 266700 | 280691
16 | 62:22.42 | 4:50.00 | 280692 | 302441
17 | 67:12.42 | 3:03.53 | 302442 | 316219
18 | 70:16.20 | 6:57.42 | 316220 | 347536


Range status and errors

Selected range

Filename C:\ArlegZ\Rossini - Robert Bruce CD1.wav

Peak level 93.4 %
Extraction speed 2.1 X
Range quality 100.0 %
Test CRC 5B320946
Copy CRC 5B320946
Copy OK

No errors occurred


AccurateRip summary

Track 1 cannot be verified as accurate (confidence 2) [9E6B8F94], AccurateRip returned [18965D92] (AR v2)
Track 2 cannot be verified as accurate (confidence 2) [C56F4CEF], AccurateRip returned [A2F1B73F] (AR v2)
Track 3 cannot be verified as accurate (confidence 2) [6DD59400], AccurateRip returned [8C7CD741] (AR v2)
Track 4 cannot be verified as accurate (confidence 2) [334D8CB3], AccurateRip returned [5C0A8EA9] (AR v2)
Track 5 cannot be verified as accurate (confidence 2) [4DBE8E36], AccurateRip returned [F27E41BC] (AR v2)
Track 6 cannot be verified as accurate (confidence 2) [48220F78], AccurateRip returned [6E20F076] (AR v2)
Track 7 cannot be verified as accurate (confidence 2) [8E1B0AAB], AccurateRip returned [8823F55C] (AR v2)
Track 8 cannot be verified as accurate (confidence 2) [CCF6552A], AccurateRip returned [E5CCE44D] (AR v2)
Track 9 cannot be verified as accurate (confidence 2) [8C79E8A5], AccurateRip returned [43D282C0] (AR v2)
Track 10 cannot be verified as accurate (confidence 2) [C4E892B5], AccurateRip returned [21CD8AB1] (AR v2)
Track 11 cannot be verified as accurate (confidence 2) [99A68D2F], AccurateRip returned [6EAAC993] (AR v2)
Track 12 cannot be verified as accurate (confidence 2) [4D6DDCF4], AccurateRip returned [198E51E8] (AR v2)
Track 13 cannot be verified as accurate (confidence 2) [74AC9379], AccurateRip returned [2D3CAC51] (AR v2)
Track 14 cannot be verified as accurate (confidence 2) [B34030A3], AccurateRip returned [C1FB7DF6] (AR v2)
Track 15 cannot be verified as accurate (confidence 2) [D652526E], AccurateRip returned [1790C69C] (AR v2)
Track 16 cannot be verified as accurate (confidence 2) [DD40A339], AccurateRip returned [8F4C86D8] (AR v2)
Track 17 cannot be verified as accurate (confidence 2) [8476AE0B], AccurateRip returned [8570AD0B] (AR v2)
Track 18 cannot be verified as accurate (confidence 2) [AE7DC87C], AccurateRip returned [573E58FE] (AR v2)

No tracks could be verified as accurate
You may have a different pressing from the one(s) in the database

End of status report

==== Log checksum 08046123B5CCCB4C2A8BD69D6E01C5880E2C691DC3E59DAD76361CA7CF62700E ====


Exact Audio Copy V1.3 from 2. September 2016

EAC extraction logfile from 2. November 2019, 11:38

Paolo Arrivabeni, Orchestra Internazionale d’Italia / Rossini - Robert Bruce CD2

Used drive : PIONEER DVD-RW DVR-218L Adapter: 1 ID: 0

Read mode : Secure
Utilize accurate stream : Yes
Defeat audio cache : Yes
Make use of C2 pointers : No

Read offset correction : 6
Overread into Lead-In and Lead-Out : No
Fill up missing offset samples with silence : Yes
Delete leading and trailing silent blocks : No
Null samples used in CRC calculations : Yes
Used interface : Native Win32 interface for Win NT & 2000

Used output format : User Defined Encoder
Selected bitrate : 128 kBit/s
Quality : High
Add ID3 tag : No
Command line compressor : C:\Program Files\Exact Audio Copy\FLAC\FLAC.EXE
Additional command line options : -V -8 -T "Date=%year%" -T "Genre=%genre%" %source%


TOC of the extracted CD

Track | Start | Length | Start sector | End sector
––––––––––––––––––––––––––––-
1 | 0:00.00 | 3:10.55 | 0 | 14304
2 | 3:10.55 | 4:49.60 | 14305 | 36039
3 | 8:00.40 | 7:23.22 | 36040 | 69286
4 | 15:23.62 | 2:33.55 | 69287 | 80816
5 | 17:57.42 | 4:48.35 | 80817 | 102451
6 | 22:46.02 | 3:14.45 | 102452 | 117046
7 | 26:00.47 | 5:44.58 | 117047 | 142904
8 | 31:45.30 | 2:25.07 | 142905 | 153786
9 | 34:10.37 | 5:04.68 | 153787 | 176654
10 | 39:15.30 | 4:42.47 | 176655 | 197851
11 | 43:58.02 | 4:32.25 | 197852 | 218276
12 | 48:30.27 | 2:46.68 | 218277 | 230794
13 | 51:17.20 | 2:33.47 | 230795 | 242316
14 | 53:50.67 | 6:03.60 | 242317 | 269601
15 | 59:54.52 | 4:14.45 | 269602 | 288696
16 | 64:09.22 | 3:43.65 | 288697 | 305486


Range status and errors

Selected range

Filename C:\ArlegZ\Rossini - Robert Bruce CD2.wav

Peak level 91.5 %
Extraction speed 2.0 X
Range quality 100.0 %
Test CRC CA3520F1
Copy CRC CA3520F1
Copy OK

No errors occurred


AccurateRip summary

Track 1 cannot be verified as accurate (confidence 2) [0F6C6502], AccurateRip returned [E418E47F] (AR v2)
Track 2 cannot be verified as accurate (confidence 2) [613E1F07], AccurateRip returned [E065BEDE] (AR v2)
Track 3 cannot be verified as accurate (confidence 2) [A77A2E13], AccurateRip returned [DABE3EF6] (AR v2)
Track 4 cannot be verified as accurate (confidence 2) [C5FC77BF], AccurateRip returned [98A40976] (AR v2)
Track 5 cannot be verified as accurate (confidence 2) [BD32A116], AccurateRip returned [4C78B57A] (AR v2)
Track 6 cannot be verified as accurate (confidence 2) [77532A9A], AccurateRip returned [E756303E] (AR v2)
Track 7 cannot be verified as accurate (confidence 2) [094FBA62], AccurateRip returned [715CC2B2] (AR v2)
Track 8 cannot be verified as accurate (confidence 2) [58F66983], AccurateRip returned [176D4951] (AR v2)
Track 9 cannot be verified as accurate (confidence 2) [1ACC0EF8], AccurateRip returned [984BCCA4] (AR v2)
Track 10 cannot be verified as accurate (confidence 2) [87A76DD9], AccurateRip returned [A3240C41] (AR v2)
Track 11 cannot be verified as accurate (confidence 2) [8F8E5C08], AccurateRip returned [FD029F2B] (AR v2)
Track 12 cannot be verified as accurate (confidence 2) [F42F9493], AccurateRip returned [25B805D2] (AR v2)
Track 13 cannot be verified as accurate (confidence 2) [7519736B], AccurateRip returned [812D4CB2] (AR v2)
Track 14 cannot be verified as accurate (confidence 2) [17210019], AccurateRip returned [182CDD8A] (AR v2)
Track 15 cannot be verified as accurate (confidence 2) [E61B44EE], AccurateRip returned [F2708B2B] (AR v2)
Track 16 cannot be verified as accurate (confidence 2) [25787A75], AccurateRip returned [BFED0650] (AR v2)

No tracks could be verified as accurate
You may have a different pressing from the one(s) in the database

End of status report

==== Log checksum 17C1EBA34D2AA360751A6D450A8E7611780711EFFD5C1D9CE2EAD5BE18E9805A ====

Paolo Arrivabeni, Orchestra Internazionale d’Italia - Rossini: Robert Bruce (2003)