Tags
Language
Tags
January 2023
Su Mo Tu We Th Fr Sa
1 2 3 4 5 6 7
8 9 10 11 12 13 14
15 16 17 18 19 20 21
22 23 24 25 26 27 28
29 30 31 1 2 3 4

Paramore - After Laughter (2017)

Posted By: SERTiL
Paramore - After Laughter (2017)

Paramore - After Laughter
EAC Rip | FLAC (tracks)+cue, log, m3u, front cover | 42:31 min | 282 MB
Label: Fueled by Ramen - 581588-2 | Tracks: 12 | Rls.date: 2017
Pop Rock

The band’s first new album in more than four years, “AFTER LAUGHTER” was recorded at Nashville’s historic RCA Studio B – Paramore’s first time recording in their own beloved hometown. The album is produced by Justin Meldal-Johnsen and Paramore’s own Taylor York. “AFTER LAUGHTER” also marks the return of original member Zac Farro back to the band.

TRACKLIST
01. Hard Times 03:02
02. Rose-Colored Boy 03:32
03. Told You So 03:09
04. Forgiveness 03:39
05. Fake Happy 03:55
06. 26 03:41
07. Pool 03:52
08. Grudges 03:07
09. Caught In The Middle 03:34
10. Idle Worship 03:18
11. No Friend 03:23
12. Tell Me How 04:20

Exact Audio Copy V1.3 from 2. September 2016

EAC extraction logfile from 12. May 2017, 21:45

Paramore / After Laughter

Used drive : TSSTcorpDVDWBD SH-B123L Adapter: 1 ID: 0

Read mode : Secure
Utilize accurate stream : Yes
Defeat audio cache : Yes
Make use of C2 pointers : No

Read offset correction : 6
Overread into Lead-In and Lead-Out : No
Fill up missing offset samples with silence : Yes
Delete leading and trailing silent blocks : No
Null samples used in CRC calculations : Yes
Used interface : Native Win32 interface for Win NT & 2000
Gap handling : Appended to previous track

Used output format : User Defined Encoder
Selected bitrate : 1024 kBit/s
Quality : High
Add ID3 tag : No
Command line compressor : C:\Program Files (x86)\Exact Audio Copy\Flac\flac.exe
Additional command line options : -8 -V -T "ARTIST=%artist%" -T "TITLE=%title%" -T "ALBUM=%albumtitle%" -T "DATE=%year%" -T "TRACKNUMBER=%tracknr%" -T "GENRE=%genre%" -T "PERFORMER=%albuminterpret%" -T "COMPOSER=%composer%" %haslyrics%–tag-from-file=LYRICS="%lyricsfile%"%haslyrics% -T "ALBUMARTIST=%albumartist%" -T "DISCNUMBER=%cdnumber%" -T "TOTALDISCS=%totalcds%" -T "TOTALTRACKS=%numtracks%" -T "COMMENT=%comment%" %source% -o %dest%


TOC of the extracted CD

Track | Start | Length | Start sector | End sector
––––––––––––––––––––––––––––-
1 | 0:00.00 | 3:02.52 | 0 | 13701
2 | 3:02.52 | 3:32.64 | 13702 | 29665
3 | 6:35.41 | 3:08.71 | 29666 | 43836
4 | 9:44.37 | 3:39.57 | 43837 | 60318
5 | 13:24.19 | 3:55.53 | 60319 | 77996
6 | 17:19.72 | 3:41.54 | 77997 | 94625
7 | 21:01.51 | 3:52.59 | 94626 | 112084
8 | 24:54.35 | 3:07.35 | 112085 | 126144
9 | 28:01.70 | 3:34.12 | 126145 | 142206
10 | 31:36.07 | 3:18.31 | 142207 | 157087
11 | 34:54.38 | 3:23.58 | 157088 | 172370
12 | 38:18.21 | 4:20.16 | 172371 | 191886


Track 1

Filename C:\rips\Paramore - After Laughter\01 - Hard Times.wav

Pre-gap length 0:00:02.00

Peak level 99.1 %
Extraction speed 1.9 X
Track quality 100.0 %
Test CRC B2EE4EFF
Copy CRC B2EE4EFF
Track not present in AccurateRip database
Copy OK

Track 2

Filename C:\rips\Paramore - After Laughter\02 - Rose-Colored Boy.wav

Peak level 98.5 %
Extraction speed 2.1 X
Track quality 100.0 %
Test CRC 3744626F
Copy CRC 3744626F
Track not present in AccurateRip database
Copy OK

Track 3

Filename C:\rips\Paramore - After Laughter\03 - Told You So.wav

Peak level 98.4 %
Extraction speed 2.2 X
Track quality 100.0 %
Test CRC 7C57D8F9
Copy CRC 7C57D8F9
Track not present in AccurateRip database
Copy OK

Track 4

Filename C:\rips\Paramore - After Laughter\04 - Forgiveness.wav

Peak level 100.0 %
Extraction speed 2.0 X
Track quality 99.9 %
Test CRC E4984704
Copy CRC E4984704
Track not present in AccurateRip database
Copy OK

Track 5

Filename C:\rips\Paramore - After Laughter\05 - Fake Happy.wav

Peak level 97.9 %
Extraction speed 2.2 X
Track quality 99.9 %
Test CRC C087E3E8
Copy CRC C087E3E8
Track not present in AccurateRip database
Copy OK

Track 6

Filename C:\rips\Paramore - After Laughter\06 - 26.wav

Peak level 96.6 %
Extraction speed 2.8 X
Track quality 100.0 %
Test CRC 5E0D1E65
Copy CRC 5E0D1E65
Track not present in AccurateRip database
Copy OK

Track 7

Filename C:\rips\Paramore - After Laughter\07 - Pool.wav

Peak level 98.0 %
Extraction speed 2.9 X
Track quality 100.0 %
Test CRC C03C4EE4
Copy CRC C03C4EE4
Track not present in AccurateRip database
Copy OK

Track 8

Filename C:\rips\Paramore - After Laughter\08 - Grudges.wav

Peak level 99.4 %
Extraction speed 3.0 X
Track quality 100.0 %
Test CRC 8970A03C
Copy CRC 8970A03C
Track not present in AccurateRip database
Copy OK

Track 9

Filename C:\rips\Paramore - After Laughter\09 - Caught In The Middle.wav

Peak level 100.0 %
Extraction speed 3.1 X
Track quality 100.0 %
Test CRC 509DBE71
Copy CRC 509DBE71
Track not present in AccurateRip database
Copy OK

Track 10

Filename C:\rips\Paramore - After Laughter\10 - Idle Worship.wav

Peak level 100.0 %
Extraction speed 3.2 X
Track quality 100.0 %
Test CRC 1D6D401E
Copy CRC 1D6D401E
Track not present in AccurateRip database
Copy OK

Track 11

Filename C:\rips\Paramore - After Laughter\11 - No Friend.wav

Peak level 97.4 %
Extraction speed 3.4 X
Track quality 100.0 %
Test CRC E0264DFC
Copy CRC E0264DFC
Track not present in AccurateRip database
Copy OK

Track 12

Filename C:\rips\Paramore - After Laughter\12 - Tell Me How.wav

Peak level 100.0 %
Extraction speed 3.6 X
Track quality 100.0 %
Test CRC 544BF80B
Copy CRC 544BF80B
Track not present in AccurateRip database
Copy OK


None of the tracks are present in the AccurateRip database

No errors occurred

End of status report

–– CUETools DB Plugin V2.1.6

[CTDB TOCID: lX4k0qyA3Mze5Mrma6yyWUBUpo0-] found
Submit result: lX4k0qyA3Mze5Mrma6yyWUBUpo0- has been confirmed
Track | CTDB Status
1 | (21/21) Accurately ripped
2 | (21/21) Accurately ripped
3 | (21/21) Accurately ripped
4 | (21/21) Accurately ripped
5 | (21/21) Accurately ripped
6 | (21/21) Accurately ripped
7 | (21/21) Accurately ripped
8 | (21/21) Accurately ripped
9 | (21/21) Accurately ripped
10 | (21/21) Accurately ripped
11 | (21/21) Accurately ripped
12 | (21/21) Accurately ripped


==== Log checksum C6EEFE0E872D4300AD1505B34C3376DA11594A21A1226A6BC1C185AD64EB8B02 ====


Thanks to the Original customer.