Subcategories

Patricia Petibon, Daniel Harding, Concerto Köln - Amoureuses: Mozart, Haydn, Gluck (2008)

Posted By: ArlegZ
Patricia Petibon, Daniel Harding, Concerto Köln - Amoureuses: Mozart, Haydn, Gluck (2008)

Patricia Petibon, Daniel Harding, Concerto Köln - Amoureuses: Mozart, Haydn, Gluck (2008)
EAC | FLAC | Image (Cue & Log) ~ 321 Mb | Total time: 68:39 | Scans included
Classical | Label: Deutsche Grammophon| 477 7468 | Recorded: 2008

Petibon has established herself as one of the most interesting and versatile sopranos of our day and has been widely acclaimed for her outstanding acting abilities that make her merge completely with whatever role she sings and represents on stage.
With Amoureuses Petibon circles around the ever-important topic of love and desire – in a series of character-portraits she explores how the very different female characters in the operas of Mozart, Haydn, and Gluck respond to the challenges of love.
Ranging from the dramatic fury in Haydn’s Odio, furor, dispetto and Mozart’s Der Hölle Rache . . . to the sweetness in his Deh vieni, and from the desperate sadness of his L’ho perduta . . . me meschina! to the grandeur of Gluck’s Ah! Si la liberté, the album is the perfect showcase for Petibon’s exceptional skills of expression and characterization.
For Amoureuses Petibon teamed up with the acclaimed period-instrument band Concerto Köln and conductor Daniel Harding, a collaboration that guarantees an effervescent, entrancing approach to the music of the Viennese masters – a captivating debut to watch for!

Performer:
Patricia Petibon, soprano
Concerto Köln
Daniel Harding, conductor

Track List:
Joseph Haydn (1732-1809)
01. Il mondo della luna, Act I, Aria: Ragion nell'alma siede
Wolfgang Amadeus Mozart (1756-1791)
02. Vorrei spiegarvi, oh Dio, K.418
03. Die Zauberflöte, K.620, Act II, Aria: Der Hölle Rache kocht in meinem Herzen
04. Le nozze di Figaro, K.492, Act IV, Cavatina: L'ho perduta… me meschina!
05. Le nozze di Figaro, K.492, Act IV, Aria: Deh vieni, non tardar
06. Lucio Silla, K.135, Act II, Accompagnato ed Aria: Vanne. T'affretta … Ah se il crudel periglio
07.Lucio Silla, K.135, Act II, Aria: Fra i pensier più funesti di morte
Joseph Haydn
08. Lo speziale, Act III, Aria: Salamelica, Semprugna cara
Christoph Willibald von Gluck (1714-1787)
09. Armide, Act II, Aria: Venez, secondez mes desirs
Joseph Haydn
10. Armida, Act II, Aria: Odio, furor, dispetto
11. L'Anima del Filosofo, Act II, Cavatina: Dell mio core il voto estremo
12. L'isola disabitata, Part I, Aria: Fra un dolce deliro
Christoph Willibald von Gluck
13. Iphigénie en Tauride, Act IV, Accompagnato & Aria: Non, cet affreux devoir
14. Armide, Act III, Aria: Ah! Si la liberté me doit être ravie
Wolfgang Amadeus Mozart
15. Zaide, K.344, Act II, Aria: Tiger! wetze nur die Klauen
Christoph Willibald von Gluck
16. Armide, Act V, Aria: Le perfide Renaud … Quand le barbare


Exact Audio Copy V1.3 from 2. September 2016

EAC extraction logfile from 11. April 2020, 21:51

Patricia Petibon / Amoureuses. Mozart Haydn Gluck

Used drive : ATAPI iHAS124 F Adapter: 1 ID: 0

Read mode : Secure
Utilize accurate stream : Yes
Defeat audio cache : Yes
Make use of C2 pointers : No

Read offset correction : 6
Overread into Lead-In and Lead-Out : No
Fill up missing offset samples with silence : Yes
Delete leading and trailing silent blocks : No
Null samples used in CRC calculations : Yes
Used interface : Native Win32 interface for Win NT & 2000

Used output format : User Defined Encoder
Selected bitrate : 1024 kBit/s
Quality : High
Add ID3 tag : No
Command line compressor : C:\Program Files (x86)\Exact Audio Copy\FLAC\FLAC.EXE
Additional command line options : -6 -V -T "ARTIST=%artist%" -T "TITLE=%title%" -T "ALBUM=%albumtitle%" -T "DATE=%year%" -T "TRACKNUMBER=%tracknr%" -T "GENRE=%genre%" -T "COMMENT=%comment%" -T "BAND=%albuminterpret%" -T "ALBUMARTIST=%albuminterpret%" -T "COMPOSER=%composer%" %haslyrics%–tag-from-file=LYRICS="%lyricsfile%"%haslyrics% -T "DISCNUMBER=%cdnumber%" -T "TOTALDISCS=%totalcds%" -T "TOTALTRACKS=%numtracks%" %hascover%–picture="%coverfile%"%hascover% %source% -o %dest%


TOC of the extracted CD

Track | Start | Length | Start sector | End sector
––––––––––––––––––––––––––––-
1 | 0:00.00 | 5:07.21 | 0 | 23045
2 | 5:07.21 | 6:46.07 | 23046 | 53502
3 | 11:53.28 | 3:13.41 | 53503 | 68018
4 | 15:06.69 | 2:00.13 | 68019 | 77031
5 | 17:07.07 | 3:05.69 | 77032 | 90975
6 | 20:13.01 | 10:01.46 | 90976 | 136096
7 | 30:14.47 | 3:03.00 | 136097 | 149821
8 | 33:17.47 | 1:51.60 | 149822 | 158206
9 | 35:09.32 | 2:37.13 | 158207 | 169994
10 | 37:46.45 | 2:11.29 | 169995 | 179848
11 | 39:57.74 | 3:48.19 | 179849 | 196967
12 | 43:46.18 | 4:31.29 | 196968 | 217321
13 | 48:17.47 | 3:51.32 | 217322 | 234678
14 | 52:09.04 | 4:16.52 | 234679 | 253930
15 | 56:25.56 | 5:21.34 | 253931 | 278039
16 | 61:47.15 | 6:52.08 | 278040 | 308947


Range status and errors

Selected range

Filename C:\EACRip\PETIBON\Amoureuses. Mozart Haydn Gluck (Patricia Petibon, Concerto Koln) (2008)\Amoureuses. Mozart Haydn Gluck - Patricia Petibon, Concerto Koln, Daniel Harding.wav

Peak level 100.0 %
Extraction speed 9.6 X
Range quality 100.0 %
Test CRC 00B296C3
Copy CRC 00B296C3
Copy OK

No errors occurred


AccurateRip summary

Track 1 accurately ripped (confidence 58) [B4055458] (AR v2)
Track 2 accurately ripped (confidence 57) [67C79CA9] (AR v2)
Track 3 accurately ripped (confidence 58) [A8344309] (AR v2)
Track 4 accurately ripped (confidence 58) [DCA33E21] (AR v2)
Track 5 accurately ripped (confidence 58) [CE6F72DF] (AR v2)
Track 6 accurately ripped (confidence 57) [17895922] (AR v2)
Track 7 accurately ripped (confidence 57) [899F2868] (AR v2)
Track 8 accurately ripped (confidence 58) [2F76A9A6] (AR v2)
Track 9 accurately ripped (confidence 58) [81FB4D0A] (AR v2)
Track 10 accurately ripped (confidence 58) [7D0B2396] (AR v2)
Track 11 accurately ripped (confidence 58) [EB211F47] (AR v2)
Track 12 accurately ripped (confidence 58) [302AEC09] (AR v2)
Track 13 accurately ripped (confidence 57) [8ADDD95E] (AR v2)
Track 14 accurately ripped (confidence 58) [EED45A10] (AR v2)
Track 15 accurately ripped (confidence 58) [0AC0D0EE] (AR v2)
Track 16 accurately ripped (confidence 57) [7A505055] (AR v2)

All tracks accurately ripped

End of status report

–– CUETools DB Plugin V2.1.6

[CTDB TOCID: hSlSEWcW.ZTAASTlhvPbDrA4Gq0-] found
Submit result: hSlSEWcW.ZTAASTlhvPbDrA4Gq0- has been confirmed
Track | CTDB Status
1 | (70/70) Accurately ripped
2 | (70/70) Accurately ripped
3 | (70/70) Accurately ripped
4 | (70/70) Accurately ripped
5 | (70/70) Accurately ripped
6 | (69/70) Accurately ripped
7 | (70/70) Accurately ripped
8 | (70/70) Accurately ripped
9 | (70/70) Accurately ripped
10 | (70/70) Accurately ripped
11 | (69/70) Accurately ripped
12 | (69/70) Accurately ripped
13 | (70/70) Accurately ripped
14 | (70/70) Accurately ripped
15 | (68/70) Accurately ripped
16 | (70/70) Accurately ripped


==== Log checksum 8822B3EB1A2F7AC827422962F74172461CA3971C1CEC7215C714A3C72741B768 ====

Patricia Petibon, Daniel Harding, Concerto Köln - Amoureuses: Mozart, Haydn, Gluck (2008)

Thanks to the original releaser