Tags
Language
Tags

Paul Plimley Trio - Density of the Lovestruck Demons (1995)

Posted By: v3122
Paul Plimley Trio - Density of the Lovestruck Demons (1995)

Paul Plimley Trio - Density of the Lovestruck Demons (1995)
EAC | Flac(Image) + Cue + Log & MP3 CBR 320Kbps
Music & Arts, CD 906 | ~ 282 or 145 Mb | Artwork(jpg) -> 52 Mb
Free Jazz, Contemporary Jazz, Free Improvisation

~ Recorded at Mobius Music, San Francisco, June 1994 ~

Canadian pianist Paul Plimley and his bass playing compadre Lisle Ellis have been making records together for over 20 years, even if no one knew about them other than a few handfuls of staunch free jazz fans in the U.S. and Europe. On his last HAT disc, Density of the Lovestruck Demons, Ellis and Plimley made a recording solely of Ornette Coleman's music. It was a creative and ardent exercise in reaching through the artist's music to the place Coleman himself reaches for: the place where tune and composer separate and the improvisation leaves the realm of music entirely to become possessed solely by the world of sound. Here, Plimley, Ellis, and drummer Donald Robinson take that a step further. Plimley's compositions dominate this recording – and they should, as he is as fine a writer as we have in jazz – but they are anchored in key places by three Coleman compositions, all of which are (in)famous for the amount of freedom they allow the interpretive players. The set opens with the beginning of a suite – a thematic, really – which holds within it several other compositions. The theme is stated briefly and Robinson establishes a slippery rhythm, which Ellis commands in a few bars. Plimley then spontaneously composes over the top, accenting chromatic changes and eighth note rows in tonal variation. This is immediately followed by a reading of Coleman's "W.R.U." The trio dynamic is revealed here for how well it works in Plimley's pianism. Coleman's theme is established firmly if fluidly by all three and carried into a mode change by the rhythm section. Here, Plimley takes off, moving in a circular fashion, further and further away from the tune until he reaches a space where the improvisation transforms itself back into the body of the thematic variation played by the rhythm section at that moment! This also happens with more focused intent on "Trio Tuning," a four-part suite which includes an alternating series of tunes by Plimley and Coleman (actually two different takes of Coleman's "I Heard It Over the Radio" are interspersed with Plimley's minor key extravaganza "The Reception"). Again, it's all thematics. The entire recording is based on these "themes and variational themes" which Plimley and Ellis concoct over solid jazz themes and rhythms. Certainly, this is free jazz, because it could be nothing else. It does swing, and it moves and pushes the boundaries of what jazz might consider itself to be, but it does so with respect for the piano lineage of the music, and with a sense of humor (check out the Vince Guaraldi quotes on "In the Hand of the Land, Eyes to the Sky"). This is one of Plimley's finest moments to date.

~ Thom Jurek
Paul Plimley Trio - Density of the Lovestruck Demons (1995):

Paul Plimley Trio - Density of the Lovestruck Demons (1995)

Tracklist:

01. M Tracks, Pt. 1 5:30
02. W.R.U. 4:02
03. In the Hand of the Land, Eyes to the Sky 7:37
04. Miles 5:27
05. Ritual Advance 8:50
06. M Tracks, Pt. 2 4:51
07. Trio Tuning 14:52
I Heard It Over the Radio
The Reception
I Heard It Over the Radio
08. Density of the Lovestruck Demons 8:49
09. Fast-Action Potion 1:30

Musicians:

Paul Plimley - piano
Lisle Ellis - acoustic bass
Donald Robinson - trap drums


Exact Audio Copy V0.99 prebeta 5 from 4. May 2009

EAC extraction logfile from 13. March 2011, 0:06

Paul Plimley Trio / Density of the Lovestruck Demons

Used drive : TSSTcorpCDDVDW SH-S222A Adapter: 1 ID: 0

Read mode : Secure
Utilize accurate stream : Yes
Defeat audio cache : Yes
Make use of C2 pointers : No

Read offset correction : 6
Overread into Lead-In and Lead-Out : No
Fill up missing offset samples with silence : Yes
Delete leading and trailing silent blocks : No
Null samples used in CRC calculations : Yes
Used interface : Installed external ASPI interface
Gap handling : Appended to previous track

Used output format : User Defined Encoder
Selected bitrate : 768 kBit/s
Quality : High
Add ID3 tag : No
Command line compressor : C:\Tool\Compress\FLAC\flac.exe
Additional command line options : -8 -V -T "ARTIST=%a" -T "TITLE=%t" -T "ALBUM=%g" -T "DATE=%y" -T "TRACKNUMBER=%n" -T "TOTALTRACKS=%x" -T "GENRE=%m" -T "ALBUM ARTIST=%v" -T "COMMENT=EAC V0.99 prebeta 5, Secure Mode, Test & Copy, AccurateRip, FLAC -8" %s


TOC of the extracted CD

Track | Start | Length | Start sector | End sector
––––––––––––––––––––––––––––-
1 | 0:00.00 | 5:30.30 | 0 | 24779
2 | 5:30.30 | 4:02.42 | 24780 | 42971
3 | 9:32.72 | 7:37.40 | 42972 | 77286
4 | 17:10.37 | 5:27.00 | 77287 | 101811
5 | 22:37.37 | 8:50.23 | 101812 | 141584
6 | 31:27.60 | 4:51.25 | 141585 | 163434
7 | 36:19.10 | 14:52.32 | 163435 | 230366
8 | 51:11.42 | 8:49.10 | 230367 | 270051
9 | 60:00.52 | 1:30.68 | 270052 | 276869


Track 1

Filename C:\! UPLOAD\Paul Plimley Trio - Density of the Lovestruck Demons (1995) [FLAC]\01 - M Tracks (part one).wav

Pre-gap length 0:00:02.00

Peak level 67.0 %
Track quality 99.9 %
Test CRC 10B69AF3
Copy CRC 10B69AF3
Track not present in AccurateRip database
Copy OK

Track 2

Filename C:\! UPLOAD\Paul Plimley Trio - Density of the Lovestruck Demons (1995) [FLAC]\02 - W.R.U..wav

Pre-gap length 0:00:02.66

Peak level 59.1 %
Track quality 100.0 %
Test CRC 743CE75E
Copy CRC 743CE75E
Accurately ripped (confidence 2) [6B27126E]
Copy OK

Track 3

Filename C:\! UPLOAD\Paul Plimley Trio - Density of the Lovestruck Demons (1995) [FLAC]\03 - In the Hand of the Land, Eyes to the SKy.wav

Pre-gap length 0:00:04.20

Peak level 56.7 %
Track quality 100.0 %
Test CRC 7C4CF027
Copy CRC 7C4CF027
Accurately ripped (confidence 2) [69DF160E]
Copy OK

Track 4

Filename C:\! UPLOAD\Paul Plimley Trio - Density of the Lovestruck Demons (1995) [FLAC]\04 - Miles.wav

Pre-gap length 0:00:05.29

Peak level 57.5 %
Track quality 100.0 %
Test CRC 8532FDFF
Copy CRC 8532FDFF
Accurately ripped (confidence 2) [F196CA52]
Copy OK

Track 5

Filename C:\! UPLOAD\Paul Plimley Trio - Density of the Lovestruck Demons (1995) [FLAC]\05 - Ritual Advance.wav

Pre-gap length 0:00:05.16

Peak level 63.7 %
Track quality 99.9 %
Test CRC 2BD72FE1
Copy CRC 2BD72FE1
Accurately ripped (confidence 2) [CD64281F]
Copy OK

Track 6

Filename C:\! UPLOAD\Paul Plimley Trio - Density of the Lovestruck Demons (1995) [FLAC]\06 - M Tracks (part two).wav

Pre-gap length 0:00:04.57

Peak level 50.5 %
Track quality 100.0 %
Test CRC 83F3DD31
Copy CRC 83F3DD31
Accurately ripped (confidence 2) [6983E44B]
Copy OK

Track 7

Filename C:\! UPLOAD\Paul Plimley Trio - Density of the Lovestruck Demons (1995) [FLAC]\07 - Trio Tuning_I Heard It Over the Radio_The Reception_I Heard It Over the Radio.wav

Pre-gap length 0:00:02.86

Peak level 33.5 %
Track quality 100.0 %
Test CRC 4B542F2E
Copy CRC 4B542F2E
Track not present in AccurateRip database
Copy OK

Track 8

Filename C:\! UPLOAD\Paul Plimley Trio - Density of the Lovestruck Demons (1995) [FLAC]\08 - Density of the Lovestruck Demons.wav

Pre-gap length 0:00:04.56

Peak level 54.6 %
Track quality 100.0 %
Test CRC F5284E8E
Copy CRC F5284E8E
Track not present in AccurateRip database
Copy OK

Track 9

Filename C:\! UPLOAD\Paul Plimley Trio - Density of the Lovestruck Demons (1995) [FLAC]\09 - Fast-Action Potion.wav

Pre-gap length 0:00:02.73

Peak level 70.7 %
Track quality 100.0 %
Test CRC A7E517CB
Copy CRC A7E517CB
Track not present in AccurateRip database
Copy OK


5 track(s) accurately ripped
4 track(s) not present in the AccurateRip database

Some tracks could not be verified as accurate

No errors occurred

End of status report


[CUETools log; Date: 04.06.2019 13:25:30; Version: 2.1.4]
[AccurateRip ID: 00144808-009914d8-700e6b09] found.
Track [ CRC | V2 ] Status
01 [360f37d1|ad7e2571] (2+3/5) Accurately ripped
02 [6b27126e|5578dd4b] (3+3/6) Accurately ripped
03 [69df160e|0e57563c] (3+3/6) Accurately ripped
04 [f196ca52|e137d273] (3+3/6) Accurately ripped
05 [cd64281f|6d67e2ea] (3+3/6) Accurately ripped
06 [6983e44b|0b4eb210] (3+3/6) Accurately ripped
07 [10a0891c|cbb346e0] (2+3/5) Accurately ripped
08 [b280f70c|dc107140] (2+3/5) Accurately ripped
09 [351e0036|7dd9f6eb] (2+3/5) Accurately ripped

Track Peak [ CRC32 ] [W/O NULL] [ LOG ]
– 70,7 [6876C433] [41D25411]
01 67,0 [10B69AF3] [F386DBFF] CRC32
02 59,1 [743CE75E] [1B026063] CRC32
03 56,7 [7C4CF027] [700B76B9] CRC32
04 57,5 [8532FDFF] [FDB18303] CRC32
05 63,7 [2BD72FE1] [644AA606] CRC32
06 50,5 [83F3DD31] [4A2535E7] CRC32
07 33,5 [4B542F2E] [C7EDB12F] CRC32
08 54,6 [F5284E8E] [E1826B11] CRC32
09 70,7 [A7E517CB] [804BAA2F] CRC32


Paul Plimley Trio - Density of the Lovestruck Demons (1995)

All thanks go to the original releaser

Download Paul Plimley Trio - Density of the Lovestruck Demons (1995):