Subcategories

Paul Simon - Paul Simon's Concert In The Park (1991)

Posted By: v3122
Paul Simon - Paul Simon's Concert In The Park (1991)

Paul Simon - Paul Simon's Concert In The Park (1991)
XLD | Flac(Image) + Cue + Log & MP3 CBR 320Kbps
2CD | Warner Bros, 7599-26737-2 | ~ 715 or 277 Mb | Scans(600dpi, jpg) -> 60 Mb
Pop Rock / Classic Rock

Ten years after playing a free concert in New York's Central Park with Art Garfunkel, Paul Simon returned, backed by the New York session musicians and the native musicians from South Africa and Brazil who had enlivened his solo work. The show was filmed and recorded, and the audio release was a 23-track double-disc set running nearly two hours. Half the selections came from his Graceland and The Rhythm of the Saints albums, but unlike the Graceland Tour of 1987, the Born at the Right Time Tour of 1991 made room for Simon's earlier solo work as well as a few Simon & Garfunkel songs. Simon made such stylistically various material work together by front-loading the set with the newer stuff and rearranging some of the older solo stuff, so that "Kodachrome," for example, was refitted with a guitar line courtesy of Graceland player Ray Phiri. (Wisely, except for a becalmed Africanization of "Cecilia," Simon didn't monkey with the S&G songs, most of which came at the end of the set.) But Simon also toned down the Brazilian percussion that had dominated the Saints material and sang it more convincingly, so that "Born at the Right Time," for example, was far more effective than it had been in its studio version. On the whole, then, Concert in the Park managed to be an enjoyable and surprisingly cohesive career summary.

by William Ruhlmann, AMG
Paul Simon - Paul Simon's Concert In The Park (1991):


Tracklist CD1:

01 - The Obvious Child 04:38
02 - The Boy In The Bubble 05:59
03 - She Moves On 06:26
04 - Kodachrome 04:13
05 - Born At The Right Time 05:11
06 - Train In The Distance 04:45
07 - Me And Julio Down By The School Yard 03:14
08 - I Know What I Know 04:45
09 - The Cool, Cool River 05:41
10 - Bridge Over Troubled Water 05:16
11 - Proof 05:40

X Lossless Decoder version 20140504 (147.0)

XLD extraction logfile from 2014-07-12 06:55:16 +0200

Simon, Paul / Paul Simon's Concert In The Park - CD 1

Used drive : PHILIPS SPD6005T (revision P1.0)
Media type : CD-Recordable

Ripper mode : XLD Secure Ripper
Disable audio cache : OK for the drive with a cache less than 1375KiB
Make use of C2 pointers : NO
Read offset correction : 6
Max retry count : 100
Gap status : Analyzed, Appended

TOC of the extracted CD
Track | Start | Length | Start sector | End sector
––––––––––––––––––––––––––––-
1 | 00:00:00 | 04:38:70 | 0 | 20919
2 | 04:38:70 | 05:59:15 | 20920 | 47859
3 | 10:38:10 | 06:26:00 | 47860 | 76809
4 | 17:04:10 | 04:13:38 | 76810 | 95822
5 | 21:17:48 | 05:12:10 | 95823 | 119232
6 | 26:29:58 | 04:45:62 | 119233 | 140669
7 | 31:15:45 | 03:13:60 | 140670 | 155204
8 | 34:29:30 | 04:44:55 | 155205 | 176559
9 | 39:14:10 | 05:40:70 | 176560 | 202129
10 | 44:55:05 | 05:16:35 | 202130 | 225864
11 | 50:11:40 | 05:39:35 | 225865 | 251324

List of alternate offset correction values
# | Absolute | Relative | Confidence
–––––––––––––––––––––
1 | 24 | 18 | 260
2 | -640 | -646 | 7

AccurateRip Summary (DiscID: 001713d1-00c6bc03-920d170b)
Track 01 : OK (v1+v2, confidence 255/262, with different offset)
Track 02 : OK (v1+v2, confidence 260/267, with different offset)
Track 03 : OK (v1+v2, confidence 258/265, with different offset)
Track 04 : OK (v1+v2, confidence 258/265, with different offset)
Track 05 : OK (v1+v2, confidence 257/264, with different offset)
Track 06 : OK (v1+v2, confidence 258/265, with different offset)
Track 07 : OK (v1+v2, confidence 259/266, with different offset)
Track 08 : OK (v1+v2, confidence 260/267, with different offset)
Track 09 : OK (v1+v2, confidence 254/261, with different offset)
Track 10 : OK (v1+v2, confidence 252/261, with different offset)
Track 11 : OK (v1+v2, confidence 249/255, with different offset)
->All tracks accurately ripped.

All Tracks
Statistics
Read error : 0
Jitter error (maybe fixed) : 0
Retry sector count : 0
Damaged sector count : 0

Track 01
Filename : /Users/DrBanan/Desktop/01 Simon, Paul - The obvious child.flac
Pre-gap length : 00:02:00

CRC32 hash (test run) : A52E6A60
CRC32 hash : A52E6A60
CRC32 hash (skip zero) : 6377908E
AccurateRip v1 signature : 28FD8EAC (EED24B37 w/correction)
AccurateRip v2 signature : 505B32C9 (1B307CD4 w/correction)
->Accurately ripped with different offset (v1+v2, confidence 146+109/262, offset +18)
Statistics
Read error : 0
Jitter error (maybe fixed) : 0
Retry sector count : 0
Damaged sector count : 0

Track 02
Filename : /Users/DrBanan/Desktop/02 Simon, Paul - The boy in the bubble.flac

CRC32 hash (test run) : 8581CAF8
CRC32 hash : 8581CAF8
CRC32 hash (skip zero) : 6DEC8B4A
AccurateRip v1 signature : 77EA61FE (E5418C3F w/correction)
AccurateRip v2 signature : 254F375B (91AC2BB5 w/correction)
->Accurately ripped with different offset (v1+v2, confidence 150+110/267, offset +18)
Statistics
Read error : 0
Jitter error (maybe fixed) : 0
Retry sector count : 0
Damaged sector count : 0

Track 03
Filename : /Users/DrBanan/Desktop/03 Simon, Paul - She moves on.flac

CRC32 hash (test run) : A9DF918A
CRC32 hash : A9DF918A
CRC32 hash (skip zero) : 8D5BBB29
AccurateRip v1 signature : B54BF724 (5CFC74CE w/correction)
AccurateRip v2 signature : A16972B0 (4C01BA8C w/correction)
->Accurately ripped with different offset (v1+v2, confidence 146+112/265, offset +18)
Statistics
Read error : 0
Jitter error (maybe fixed) : 0
Retry sector count : 0
Damaged sector count : 0

Track 04
Filename : /Users/DrBanan/Desktop/04 Simon, Paul - Kodachrome.flac

CRC32 hash (test run) : 18C7BAAA
CRC32 hash : 18C7BAAA
CRC32 hash (skip zero) : 2774745E
AccurateRip v1 signature : AB43CFC5 (000F8DDB w/correction)
AccurateRip v2 signature : 4F2C62C1 (A3DCB29D w/correction)
->Accurately ripped with different offset (v1+v2, confidence 148+110/265, offset +18)
Statistics
Read error : 0
Jitter error (maybe fixed) : 0
Retry sector count : 0
Damaged sector count : 0

Track 05
Filename : /Users/DrBanan/Desktop/05 Simon, Paul - Born at the right time.flac

CRC32 hash (test run) : EDF742F1
CRC32 hash : EDF742F1
CRC32 hash (skip zero) : 6F4724C9
AccurateRip v1 signature : 8AD81BD6 (70162C3A w/correction)
AccurateRip v2 signature : 3BE93E96 (2469F52A w/correction)
->Accurately ripped with different offset (v1+v2, confidence 146+111/264, offset +18)
Statistics
Read error : 0
Jitter error (maybe fixed) : 0
Retry sector count : 0
Damaged sector count : 0

Track 06
Filename : /Users/DrBanan/Desktop/06 Simon, Paul - Train in the distance.flac

CRC32 hash (test run) : 27BB9397
CRC32 hash : 27BB9397
CRC32 hash (skip zero) : AC66E2ED
AccurateRip v1 signature : 9836A043 (E3D766EB w/correction)
AccurateRip v2 signature : ED504DFF (32F799D8 w/correction)
->Accurately ripped with different offset (v1+v2, confidence 148+110/265, offset +18)
Statistics
Read error : 0
Jitter error (maybe fixed) : 0
Retry sector count : 0
Damaged sector count : 0

Track 07
Filename : /Users/DrBanan/Desktop/07 Simon, Paul - Me and Julio down by the school yard.flac

CRC32 hash (test run) : C4DD68C0
CRC32 hash : C4DD68C0
CRC32 hash (skip zero) : 3462848B
AccurateRip v1 signature : 171BCA55 (E8861A81 w/correction)
AccurateRip v2 signature : 73005CCF (4361CE46 w/correction)
->Accurately ripped with different offset (v1+v2, confidence 148+111/266, offset +18)
Statistics
Read error : 0
Jitter error (maybe fixed) : 0
Retry sector count : 0
Damaged sector count : 0

Track 08
Filename : /Users/DrBanan/Desktop/08 Simon, Paul - I know what I know.flac

CRC32 hash (test run) : 70D21557
CRC32 hash : 70D21557
CRC32 hash (skip zero) : 52EF02E0
AccurateRip v1 signature : 9B669CFD (71FFE2C9 w/correction)
AccurateRip v2 signature : D847A001 (ABD978D4 w/correction)
->Accurately ripped with different offset (v1+v2, confidence 149+111/267, offset +18)
Statistics
Read error : 0
Jitter error (maybe fixed) : 0
Retry sector count : 0
Damaged sector count : 0

Track 09
Filename : /Users/DrBanan/Desktop/09 Simon, Paul - The cool, cool river.flac

CRC32 hash (test run) : 1D17C76F
CRC32 hash : 1D17C76F
CRC32 hash (skip zero) : 81738CB5
AccurateRip v1 signature : F7355596 (C02536CB w/correction)
AccurateRip v2 signature : A130E6CB (6A0317E7 w/correction)
->Accurately ripped with different offset (v1+v2, confidence 146+108/261, offset +18)
Statistics
Read error : 0
Jitter error (maybe fixed) : 0
Retry sector count : 0
Damaged sector count : 0

Track 10
Filename : /Users/DrBanan/Desktop/10 Simon, Paul - Bridge over troubled water.flac

CRC32 hash (test run) : A9CC05E0
CRC32 hash : A9CC05E0
CRC32 hash (skip zero) : 5AD56BAB
AccurateRip v1 signature : 900ADB6C (854601FD w/correction)
AccurateRip v2 signature : C822E144 (B867E6B8 w/correction)
->Accurately ripped with different offset (v1+v2, confidence 142+110/261, offset +18)
Statistics
Read error : 0
Jitter error (maybe fixed) : 0
Retry sector count : 0
Damaged sector count : 0

Track 11
Filename : /Users/DrBanan/Desktop/11 Simon, Paul - Proof.flac

CRC32 hash (test run) : 8C6705B5
CRC32 hash : 8C6705B5
CRC32 hash (skip zero) : 868DEBBF
AccurateRip v1 signature : 9FB0DB74 (EFB6EAAE w/correction)
AccurateRip v2 signature : 6E4DE601 (B64D8764 w/correction)
->Accurately ripped with different offset (v1+v2, confidence 145+104/255, offset +18)
Statistics
Read error : 0
Jitter error (maybe fixed) : 0
Retry sector count : 0
Damaged sector count : 0

No errors occurred

End of status report

foobar2000 1.2.9 / Dynamic Range Meter 1.1.1
log date: 2015-02-09 10:35:23

––––––––––––––––––––––––––––––––––––––––
Analyzed: Simon, Paul / Paul Simon's Concert In The Park - CD 1
––––––––––––––––––––––––––––––––––––––––

DR Peak RMS Duration Track
––––––––––––––––––––––––––––––––––––––––
DR15 0.00 dB -16.41 dB 4:39 01-The obvious child
DR13 0.00 dB -14.61 dB 5:59 02-The boy in the bubble
DR15 0.00 dB -17.46 dB 6:26 03-She moves on
DR14 0.00 dB -17.09 dB 4:14 04-Kodachrome
DR14 -0.04 dB -18.60 dB 5:12 05-Born at the right time
DR15 -1.95 dB -20.26 dB 4:46 06-Train in the distance
DR15 0.00 dB -16.18 dB 3:14 07-Me and Julio down by the school yard
DR15 0.00 dB -17.31 dB 4:45 08-I know what I know
DR14 0.00 dB -17.46 dB 5:41 09-The cool, cool river
DR15 -2.14 dB -22.09 dB 5:16 10-Bridge over troubled water
DR14 0.00 dB -17.43 dB 5:39 11-Proof
––––––––––––––––––––––––––––––––––––––––

Number of tracks: 11
Official DR value: DR14

Samplerate: 44100 Hz
Channels: 2
Bits per sample: 16
Bitrate: 807 kbps
Codec: FLAC

[CUETools log; Date: 12.02.2015 18:50:55; Version: 2.1.4]
[CTDB TOCID: 4rpnkicaKHtP0CMNqsmKVPKba9Y-] found.
Track | CTDB Status
1 | (88/89) Accurately ripped
2 | (88/89) Accurately ripped
3 | (88/89) Accurately ripped
4 | (88/89) Accurately ripped
5 | (87/89) Accurately ripped
6 | (88/89) Accurately ripped
7 | (87/89) Accurately ripped
8 | (89/89) Accurately ripped
9 | (89/89) Accurately ripped
10 | (88/89) Accurately ripped
11 | (86/89) Accurately ripped
[AccurateRip ID: 001713d1-00c6bc03-920d170b] found.
Track [ CRC | V2 ] Status
01 [28fd8eac|505b32c9] (000+000/278) No match
02 [77ea61fe|254f375b] (000+000/283) No match
03 [b54bf724|a16972b0] (000+000/281) No match
04 [ab43cfc5|4f2c62c1] (000+000/281) No match
05 [8ad81bd6|3be93e96] (000+000/280) No match
06 [9836a043|ed504dff] (000+000/281) No match
07 [171bca55|73005ccf] (000+000/282) No match
08 [9b669cfd|d847a001] (000+000/283) No match
09 [f7355596|a130e6cb] (000+000/277) No match
10 [900adb6c|c822e144] (000+000/277) No match
11 [9fb0db74|6e4de601] (000+000/271) No match
Offsetted by -646:
01 [c0e2b39d] (007/278) Accurately ripped
02 [b38492f5] (007/283) Accurately ripped
03 [31783655] (007/281) Accurately ripped
04 [cce3d83a] (007/281) Accurately ripped
05 [af12adcd] (007/280) Accurately ripped
06 [794f8fe2] (007/281) Accurately ripped
07 [975a0d51] (007/282) Accurately ripped
08 [7a6341b2] (007/283) Accurately ripped
09 [b40a8653] (007/277) Accurately ripped
10 [e1961812] (007/277) Accurately ripped
11 [828f843e] (006/271) Accurately ripped
Offsetted by 18:
01 [eed24b37] (147/278) Accurately ripped
02 [e5418c3f] (151/283) Accurately ripped
03 [5cfc74ce] (147/281) Accurately ripped
04 [000f8ddb] (149/281) Accurately ripped
05 [70162c3a] (147/280) Accurately ripped
06 [e3d766eb] (149/281) Accurately ripped
07 [e8861a81] (149/282) Accurately ripped
08 [71ffe2c9] (150/283) Accurately ripped
09 [c02536cb] (147/277) Accurately ripped
10 [854601fd] (143/277) Accurately ripped
11 [efb6eaae] (146/271) Accurately ripped

Track Peak [ CRC32 ] [W/O NULL]
– 99,9 [7D0A57EF] [288C7A61]
01 99,9 [A52E6A60] [6377908E]
02 99,9 [8581CAF8] [6DEC8B4A]
03 99,9 [A9DF918A] [8D5BBB29]
04 99,9 [18C7BAAA] [2774745E]
05 99,5 [EDF742F1] [6F4724C9]
06 79,9 [27BB9397] [AC66E2ED]
07 99,9 [C4DD68C0] [3462848B]
08 99,9 [70D21557] [52EF02E0]
09 99,9 [1D17C76F] [81738CB5]
10 78,1 [A9CC05E0] [5AD56BAB]
11 99,9 [8C6705B5] [868DEBBF]

Tracklist CD2:

01 - The Coast 07:06
02 - Graceland 05:31
03 - You Can Call Me Al 05:10
04 - Still Crazy After All These Years 03:42
05 - Loves Me Like A Rock 02:54
06 - Diamonds On The Soles Of Her Shoes 09:31
07 - Hearts And Bones 06:18
08 - Late In The Evening 04:45
09 - America 03:23
10 - The Boxer 04:18
11 - Cecilia 03:24
12 - The Sound Of Silence 05:46

X Lossless Decoder version 20140504 (147.0)

XLD extraction logfile from 2014-07-12 08:44:26 +0200

Simon, Paul / Paul Simon's Concert In The Park [Disc 2]

Used drive : PHILIPS SPD6005T (revision P1.0)
Media type : CD-Recordable

Ripper mode : XLD Secure Ripper
Disable audio cache : OK for the drive with a cache less than 1375KiB
Make use of C2 pointers : NO
Read offset correction : 6
Max retry count : 100
Gap status : Analyzed, Appended

TOC of the extracted CD
Track | Start | Length | Start sector | End sector
––––––––––––––––––––––––––––-
1 | 00:00:00 | 07:06:20 | 0 | 31969
2 | 07:06:20 | 05:30:72 | 31970 | 56791
3 | 12:37:17 | 05:10:25 | 56792 | 80066
4 | 17:47:42 | 03:42:50 | 80067 | 96766
5 | 21:30:17 | 02:53:65 | 96767 | 109806
6 | 24:24:07 | 09:30:70 | 109807 | 152626
7 | 33:55:02 | 06:17:70 | 152627 | 180971
8 | 40:12:72 | 04:44:68 | 180972 | 202339
9 | 44:57:65 | 03:22:70 | 202340 | 217559
10 | 48:20:60 | 04:18:52 | 217560 | 236961
11 | 52:39:37 | 03:24:15 | 236962 | 252276
12 | 56:03:52 | 05:45:25 | 252277 | 278176

List of alternate offset correction values
# | Absolute | Relative | Confidence
–––––––––––––––––––––
1 | 24 | 18 | 243
2 | -640 | -646 | 27
3 | 30 | 24 | 2

AccurateRip Summary (DiscID: 001cef7e-010a6c46-ae0e7d0c)
Track 01 : OK (v1+v2, confidence 234/257, with different offset)
Track 02 : OK (v1+v2, confidence 243/269, with different offset)
Track 03 : OK (v1+v2, confidence 234/260, with different offset)
Track 04 : OK (v1+v2, confidence 240/264, with different offset)
Track 05 : OK (v1+v2, confidence 237/263, with different offset)
Track 06 : OK (v1+v2, confidence 235/261, with different offset)
Track 07 : OK (v1+v2, confidence 241/266, with different offset)
Track 08 : OK (v1+v2, confidence 238/264, with different offset)
Track 09 : OK (v1+v2, confidence 241/266, with different offset)
Track 10 : OK (v1+v2, confidence 239/266, with different offset)
Track 11 : OK (v1+v2, confidence 238/265, with different offset)
Track 12 : OK (v1+v2, confidence 231/258, with different offset)
->All tracks accurately ripped.

All Tracks
Statistics
Read error : 0
Jitter error (maybe fixed) : 0
Retry sector count : 0
Damaged sector count : 0

Track 01
Filename : /Users/DrBanan/Desktop/01 Simon, Paul - The Coast.flac
Pre-gap length : 00:02:00

CRC32 hash (test run) : 8E80B1F6
CRC32 hash : 8E80B1F6
CRC32 hash (skip zero) : C2C4C135
AccurateRip v1 signature : 8B87E61B (B5EDFB7C w/correction)
AccurateRip v2 signature : 1C3B743D (4CA3E86D w/correction)
->Accurately ripped with different offset (v1+v2, confidence 133+101/257, offset +18)
Statistics
Read error : 0
Jitter error (maybe fixed) : 0
Retry sector count : 0
Damaged sector count : 0

Track 02
Filename : /Users/DrBanan/Desktop/02 Simon, Paul - Graceland.flac

CRC32 hash (test run) : DDB4E4F1
CRC32 hash : DDB4E4F1
CRC32 hash (skip zero) : 44639070
AccurateRip v1 signature : 94F8B78D (31E3D517 w/correction)
AccurateRip v2 signature : 35B9E257 (D2729AF1 w/correction)
->Accurately ripped with different offset (v1+v2, confidence 139+104/269, offset +18)
Statistics
Read error : 0
Jitter error (maybe fixed) : 0
Retry sector count : 0
Damaged sector count : 0

Track 03
Filename : /Users/DrBanan/Desktop/03 Simon, Paul - You Can Call Me Al.flac

CRC32 hash (test run) : B66685EE
CRC32 hash : B66685EE
CRC32 hash (skip zero) : E29133F0
AccurateRip v1 signature : 24352095 (FA6BDF20 w/correction)
AccurateRip v2 signature : 605F521F (34F31ADE w/correction)
->Accurately ripped with different offset (v1+v2, confidence 133+101/260, offset +18)
Statistics
Read error : 0
Jitter error (maybe fixed) : 0
Retry sector count : 0
Damaged sector count : 0

Track 04
Filename : /Users/DrBanan/Desktop/04 Simon, Paul - Still Crazy After All These Years.flac

CRC32 hash (test run) : A94B3513
CRC32 hash : A94B3513
CRC32 hash (skip zero) : 5693C493
AccurateRip v1 signature : 8CFE4219 (B7F9F58D w/correction)
AccurateRip v2 signature : 689532A6 (8F8CAE78 w/correction)
->Accurately ripped with different offset (v1+v2, confidence 135+105/264, offset +18)
Statistics
Read error : 0
Jitter error (maybe fixed) : 0
Retry sector count : 0
Damaged sector count : 0

Track 05
Filename : /Users/DrBanan/Desktop/05 Simon, Paul - Loves Me Like A Rock.flac

CRC32 hash (test run) : 1B013941
CRC32 hash : 1B013941
CRC32 hash (skip zero) : E0E43010
AccurateRip v1 signature : CB774CA4 (6C75231F w/correction)
AccurateRip v2 signature : 91586F85 (341183FC w/correction)
->Accurately ripped with different offset (v1+v2, confidence 134+103/263, offset +18)
Statistics
Read error : 0
Jitter error (maybe fixed) : 0
Retry sector count : 0
Damaged sector count : 0

Track 06
Filename : /Users/DrBanan/Desktop/06 Simon, Paul - Diamonds On The Soles Of Her Shoes.flac

CRC32 hash (test run) : 61E577C2
CRC32 hash : 61E577C2
CRC32 hash (skip zero) : 2B4D7ECA
AccurateRip v1 signature : 60D88CF2 (ADB819EF w/correction)
AccurateRip v2 signature : 953EE533 (DDBEF67D w/correction)
->Accurately ripped with different offset (v1+v2, confidence 135+100/261, offset +18)
Statistics
Read error : 0
Jitter error (maybe fixed) : 0
Retry sector count : 0
Damaged sector count : 0

Track 07
Filename : /Users/DrBanan/Desktop/07 Simon, Paul - Hearts And Bones.flac

CRC32 hash (test run) : 435418D6
CRC32 hash : 435418D6
CRC32 hash (skip zero) : 76E2E691
AccurateRip v1 signature : B0DD606B (5D4C9A72 w/correction)
AccurateRip v2 signature : F24A92DD (9EA0B94C w/correction)
->Accurately ripped with different offset (v1+v2, confidence 136+105/266, offset +18)
Statistics
Read error : 0
Jitter error (maybe fixed) : 0
Retry sector count : 0
Damaged sector count : 0

Track 08
Filename : /Users/DrBanan/Desktop/08 Simon, Paul - Late In The Evening.flac

CRC32 hash (test run) : 4531C322
CRC32 hash : 4531C322
CRC32 hash (skip zero) : 7889A973
AccurateRip v1 signature : 4EE9B500 (F7183F49 w/correction)
AccurateRip v2 signature : 1B5930A5 (C38975F1 w/correction)
->Accurately ripped with different offset (v1+v2, confidence 135+103/264, offset +18)
Statistics
Read error : 0
Jitter error (maybe fixed) : 0
Retry sector count : 0
Damaged sector count : 0

Track 09
Filename : /Users/DrBanan/Desktop/09 Simon, Paul - America.flac

CRC32 hash (test run) : C9EA2823
CRC32 hash : C9EA2823
CRC32 hash (skip zero) : 318D48A9
AccurateRip v1 signature : ADE18151 (FF307616 w/correction)
AccurateRip v2 signature : 0C2BAD39 (5DF384E4 w/correction)
->Accurately ripped with different offset (v1+v2, confidence 137+104/266, offset +18)
Statistics
Read error : 0
Jitter error (maybe fixed) : 0
Retry sector count : 0
Damaged sector count : 0

Track 10
Filename : /Users/DrBanan/Desktop/10 Simon, Paul - The Boxer.flac

CRC32 hash (test run) : 1AC622B0
CRC32 hash : 1AC622B0
CRC32 hash (skip zero) : A68C1FD4
AccurateRip v1 signature : 39F8A19D (DCBDD6D4 w/correction)
AccurateRip v2 signature : 2466CDE3 (C7CC4405 w/correction)
->Accurately ripped with different offset (v1+v2, confidence 135+104/266, offset +18)
Statistics
Read error : 0
Jitter error (maybe fixed) : 0
Retry sector count : 0
Damaged sector count : 0

Track 11
Filename : /Users/DrBanan/Desktop/11 Simon, Paul - Cecilia.flac

CRC32 hash (test run) : 7411AF69
CRC32 hash : 7411AF69
CRC32 hash (skip zero) : 68FEC26A
AccurateRip v1 signature : 48F0ACB3 (72811539 w/correction)
AccurateRip v2 signature : AA67FC7C (D2EDAA8A w/correction)
->Accurately ripped with different offset (v1+v2, confidence 135+103/265, offset +18)
Statistics
Read error : 0
Jitter error (maybe fixed) : 0
Retry sector count : 0
Damaged sector count : 0

Track 12
Filename : /Users/DrBanan/Desktop/12 Simon, Paul - The Sound Of Silence.flac

CRC32 hash (test run) : B09E00DF
CRC32 hash : B09E00DF
CRC32 hash (skip zero) : 15C26FB3
AccurateRip v1 signature : 84256BF2 (BD99B96C w/correction)
AccurateRip v2 signature : 1710878F (508026CA w/correction)
->Accurately ripped with different offset (v1+v2, confidence 131+100/258, offset +18)
Statistics
Read error : 0
Jitter error (maybe fixed) : 0
Retry sector count : 0
Damaged sector count : 0

No errors occurred

End of status report

foobar2000 1.2.9 / Dynamic Range Meter 1.1.1
log date: 2015-02-12 18:51:23

––––––––––––––––––––––––––––––––––––––––
Analyzed: Simon, Paul / Paul Simon's Concert In The Park [Disc 2]
––––––––––––––––––––––––––––––––––––––––

DR Peak RMS Duration Track
––––––––––––––––––––––––––––––––––––––––
DR14 0.00 dB -19.25 dB 7:06 01-The Coast
DR15 0.00 dB -18.59 dB 5:31 02-Graceland
DR13 0.00 dB -14.71 dB 5:10 03-You Can Call Me Al
DR16 -0.53 dB -21.07 dB 3:43 04-Still Crazy After All These Years
DR14 -0.55 dB -17.35 dB 2:54 05-Loves Me Like A Rock
DR15 0.00 dB -17.12 dB 9:31 06-Diamonds On The Soles Of Her Shoes
DR16 -1.63 dB -22.29 dB 6:18 07-Hearts And Bones
DR13 0.00 dB -14.96 dB 4:45 08-Late In The Evening
DR13 -2.60 dB -21.01 dB 3:23 09-America
DR13 -0.30 dB -18.15 dB 4:19 10-The Boxer
DR14 0.00 dB -16.52 dB 3:24 11-Cecilia
DR14 -1.58 dB -20.60 dB 5:45 12-The Sound Of Silence
––––––––––––––––––––––––––––––––––––––––

Number of tracks: 12
Official DR value: DR14

Samplerate: 44100 Hz
Channels: 2
Bits per sample: 16
Bitrate: 816 kbps
Codec: FLAC

[CUETools log; Date: 12.02.2015 18:51:15; Version: 2.1.4]
[CTDB TOCID: GVKdMHIoohh9jpjZDjKUBufFqF0-] found.
Track | CTDB Status
1 | (86/89) Accurately ripped
2 | (87/89) Accurately ripped
3 | (87/89) Accurately ripped
4 | (88/89) Accurately ripped
5 | (86/89) Accurately ripped
6 | (86/89) Accurately ripped
7 | (88/89) Accurately ripped
8 | (87/89) Accurately ripped
9 | (87/89) Accurately ripped
10 | (87/89) Accurately ripped
11 | (86/89) Accurately ripped
12 | (84/89) Accurately ripped
[AccurateRip ID: 001cef7e-010a6c46-ae0e7d0c] found.
Track [ CRC | V2 ] Status
01 [8b87e61b|1c3b743d] (000+000/273) No match
02 [94f8b78d|35b9e257] (000+000/286) No match
03 [24352095|605f521f] (000+000/275) No match
04 [8cfe4219|689532a6] (000+000/280) No match
05 [cb774ca4|91586f85] (000+000/279) No match
06 [60d88cf2|953ee533] (000+000/275) No match
07 [b0dd606b|f24a92dd] (000+000/281) No match
08 [4ee9b500|1b5930a5] (000+000/280) No match
09 [ade18151|0c2bad39] (000+000/281) No match
10 [39f8a19d|2466cde3] (000+000/281) No match
11 [48f0acb3|aa67fc7c] (000+000/279) No match
12 [84256bf2|1710878f] (000+000/271) No match
Offsetted by -646:
01 [53e341b7] (018/273) Accurately ripped
02 [1a709b8b] (020/286) Accurately ripped
03 [6b240742] (020/275) Accurately ripped
04 [365ab2ab] (018/280) Accurately ripped
05 [245df422] (018/279) Accurately ripped
06 [7c4d1501] (019/275) Accurately ripped
07 [d34abfc0] (018/281) Accurately ripped
08 [798b2faa] (019/280) Accurately ripped
09 [27fbc231] (018/281) Accurately ripped
10 [729d652a] (020/281) Accurately ripped
11 [6a2c3c4d] (020/279) Accurately ripped
12 [b9cef539] (020/271) Accurately ripped
Offsetted by 18:
01 [b5edfb7c] (134/273) Accurately ripped
02 [31e3d517] (140/286) Accurately ripped
03 [fa6bdf20] (134/275) Accurately ripped
04 [b7f9f58d] (136/280) Accurately ripped
05 [6c75231f] (135/279) Accurately ripped
06 [adb819ef] (135/275) Accurately ripped
07 [5d4c9a72] (137/281) Accurately ripped
08 [f7183f49] (136/280) Accurately ripped
09 [ff307616] (137/281) Accurately ripped
10 [dcbdd6d4] (135/281) Accurately ripped
11 [72811539] (135/279) Accurately ripped
12 [bd99b96c] (131/271) Accurately ripped
Offsetted by 24:
01 [720493aa] (000/273) No match
02 [635cda6a] (000/286) No match
03 [1fa8dd9c] (000/275) No match
04 [8f717d59] (000/280) No match
05 [013040f5] (002/279) Accurately ripped
06 [11304230] (000/275) No match
07 [d38e6c5c] (000/281) No match
08 [a282c27c] (000/280) No match
09 [b8c69af6] (000/281) No match
10 [d85f12ee] (000/281) No match
11 [1172b34a] (000/279) No match
12 [d76c4106] (000/271) No match

Track Peak [ CRC32 ] [W/O NULL]
– 99,9 [72ACD7BC] [414E9850]
01 99,9 [8E80B1F6] [C2C4C135]
02 99,9 [DDB4E4F1] [44639070]
03 99,9 [B66685EE] [E29133F0]
04 94,0 [A94B3513] [5693C493]
05 93,8 [1B013941] [E0E43010]
06 99,9 [61E577C2] [2B4D7ECA]
07 82,9 [435418D6] [76E2E691]
08 99,9 [4531C322] [7889A973]
09 74,1 [C9EA2823] [318D48A9]
10 96,6 [1AC622B0] [A68C1FD4]
11 99,9 [7411AF69] [68FEC26A]
12 83,3 [B09E00DF] [15C26FB3]

Paul Simon - Paul Simon's Concert In The Park (1991)

All thanks go to DrBanan