Subcategories

Paul Smoker (with Ed Schuller, Dominic Duval) - Duocity in Brass & Wood (2003)

Posted By: v3122
Paul Smoker (with Ed Schuller, Dominic Duval) - Duocity in Brass & Wood (2003)

Paul Smoker (with Ed Schuller, Dominic Duval) - Duocity in Brass & Wood (2003)
EAC | Flac(Image) + Cue + Log & MP3 CBR 320Kbps
2CD | Cadence Jazz Records, CJR 1155/56 | ~ 476 or 291 Mb | Artwork(jpg) -> 4.39 Mb
Free Jazz, Contemporary Jazz

As is so often the case with music this adventurous, reactions are likely to be extreme: most probably will either love it or hate it. Both CDs from this set were recorded live at Rochester, NY's appropriately titled Bop Shop, a venue that has excelled at hosting the best artists on the radical fringes of jazz. Each CD features the sinewy trumpet of Paul Smoker with a different acoustic string bassist, Ed Schuller on the first and Dominic Duval on the second. The edge goes to the slightly more accessible one with Duval due in part to its selection of tunes, which include the popular songs "If I Were a Bell," "Blue Monk," and "The Party's Over." All the other tracks on both discs are more or less freely improvised. While the bassists are critical to the success of the music, it is the trumpeter's amazing technique, putty-like extensions, twisted notes, and taffy-soft rubbery turns that continuously astound. Smoker uses mutes effectively, coupled with long bop-derived runs that end suddenly like a long-distance runner crossing the finish line. While slightly more than two hours of trumpet and bass might be difficult for even the most seasoned listeners to bear in a single sitting, Smoker is a unique stylist who infuses every piece with fascinating plunges, changes in tempo, surprising choices of notes, and humor.

by Steve Loewy, allmusic
Paul Smoker (with Ed Schuller, Dominic Duval) - Duocity in Brass & Wood (2003):

Paul Smoker (with Ed Schuller, Dominic Duval) - Duocity in Brass & Wood (2003)

Tracklist CD1 - with Ed Schuller:

1 Metatactics
2 Didgerotics
3 Hypnotics/ Bassoptic Mutetics/ Nostematics
4 Cruisinistics

Exact Audio Copy V1.0 beta 3 from 29. August 2011

EAC extraction logfile from 2. August 2012, 9:33

Paul Smoker / Duocity in Brass & Wood (CD1)

Used drive : SlimtypeDVD A DS8A5SH Adapter: 0 ID: 1

Read mode : Secure
Utilize accurate stream : Yes
Defeat audio cache : Yes
Make use of C2 pointers : No

Read offset correction : 6
Overread into Lead-In and Lead-Out : No
Fill up missing offset samples with silence : Yes
Delete leading and trailing silent blocks : No
Null samples used in CRC calculations : Yes
Used interface : Native Win32 interface for Win NT & 2000
Gap handling : Appended to previous track

Used output format : User Defined Encoder
Selected bitrate : 128 kBit/s
Quality : High
Add ID3 tag : No
Command line compressor : C:\Program Files (x86)\Exact Audio Copy\Flac\flac.exe
Additional command line options : -V -8 -T "Genre=%genre%" -T "Artist=%artist%" -T "Title=%title%" -T "Album=%albumtitle%" -T "Date=%year%" -T "Tracknumber=%tracknr%" -T "Comment=%comment%" %source%


TOC of the extracted CD

Track | Start | Length | Start sector | End sector
––––––––––––––––––––––––––––-
1 | 0:00.00 | 11:53.24 | 0 | 53498
2 | 11:53.24 | 9:24.30 | 53499 | 95828
3 | 21:17.54 | 30:39.17 | 95829 | 233770
4 | 51:56.71 | 10:23.01 | 233771 | 280496


Track 1

Filename D:\Musak 2\Paul Smoker\Duocity in Brass & Wood\Duocity in Brass & Wood (CD1)\01. Metatactics.wav

Pre-gap length 0:00:02.00

Peak level 100.0 %
Extraction speed 3.1 X
Track quality 100.0 %
Test CRC 7E0D3ED4
Copy CRC 7E0D3ED4
Copy OK

Track 2

Filename D:\Musak 2\Paul Smoker\Duocity in Brass & Wood\Duocity in Brass & Wood (CD1)\02. Didgerotics.wav

Peak level 93.8 %
Extraction speed 3.5 X
Track quality 99.9 %
Test CRC 7FF0D3CE
Copy CRC 7FF0D3CE
Copy OK

Track 3

Filename D:\Musak 2\Paul Smoker\Duocity in Brass & Wood\Duocity in Brass & Wood (CD1)\03. Hypnotics, Bassoptic Mutetics, Nostematics.wav

Peak level 100.0 %
Extraction speed 4.9 X
Track quality 100.0 %
Test CRC CB1974A8
Copy CRC CB1974A8
Copy OK

Track 4

Filename D:\Musak 2\Paul Smoker\Duocity in Brass & Wood\Duocity in Brass & Wood (CD1)\04. Cruisinistics.wav

Peak level 100.0 %
Extraction speed 5.6 X
Track quality 100.0 %
Test CRC 79A642D5
Copy CRC 79A642D5
Copy OK

No errors occurred

End of status report

==== Log checksum 8F3F2586BFADF538BFC2444ABAF929B2C569829D6B831EB31D1B375A642A04A0 ====


[CUETools log; Date: 19.01.2020 13:00:18; Version: 2.1.6]
[CTDB TOCID: QbnMXx7k0B5ldxbOaV7TXffqVsI-] disk not present in database.
[AccurateRip ID: 000a202c-0029b017-2f0e9b04] found.
Track [ CRC | V2 ] Status
01 [be5d9ce1|5a283da1] (1+0/1) Accurately ripped
02 [7767e075|dc2987a8] (1+0/1) Accurately ripped
03 [25ad4bf9|3d223203] (1+0/1) Accurately ripped
04 [bfc450c2|6949352f] (1+0/1) Accurately ripped

Track Peak [ CRC32 ] [W/O NULL] [ LOG ]
– 100,0 [96045088] [C8B927CA]
01 100,0 [7E0D3ED4] [B1CE8481] CRC32
02 93,8 [7FF0D3CE] [4B07E5C8] CRC32
03 100,0 [CB1974A8] [59D94251] CRC32
04 100,0 [79A642D5] [30C0DB03] CRC32


Paul Smoker (with Ed Schuller, Dominic Duval) - Duocity in Brass & Wood (2003)

Tracklist CD2 - with Dominic Duval:

1 Greetings
2 Mutant Swing
3 If I Were a Bell
4 Rage Against It
5 On the River
6 Burn Dialogue/ Blue Monk
7 Interval Loops/ The Party's Over

Exact Audio Copy V1.0 beta 3 from 29. August 2011

EAC extraction logfile from 3. August 2012, 8:21

Paul Smoker / Duocity in Brass & Wood (CD2)

Used drive : SlimtypeDVD A DS8A5SH Adapter: 0 ID: 1

Read mode : Secure
Utilize accurate stream : Yes
Defeat audio cache : Yes
Make use of C2 pointers : No

Read offset correction : 6
Overread into Lead-In and Lead-Out : No
Fill up missing offset samples with silence : Yes
Delete leading and trailing silent blocks : No
Null samples used in CRC calculations : Yes
Used interface : Native Win32 interface for Win NT & 2000
Gap handling : Appended to previous track

Used output format : User Defined Encoder
Selected bitrate : 128 kBit/s
Quality : High
Add ID3 tag : No
Command line compressor : C:\Program Files (x86)\Exact Audio Copy\Flac\flac.exe
Additional command line options : -V -8 -T "Genre=%genre%" -T "Artist=%artist%" -T "Title=%title%" -T "Album=%albumtitle%" -T "Date=%year%" -T "Tracknumber=%tracknr%" -T "Comment=%comment%" %source%


TOC of the extracted CD

Track | Start | Length | Start sector | End sector
––––––––––––––––––––––––––––-
1 | 0:00.00 | 9:33.15 | 0 | 42989
2 | 9:33.15 | 9:41.06 | 42990 | 86570
3 | 19:14.21 | 8:10.38 | 86571 | 123358
4 | 27:24.59 | 5:29.44 | 123359 | 148077
5 | 32:54.28 | 9:18.57 | 148078 | 189984
6 | 42:13.10 | 13:25.03 | 189985 | 250362
7 | 55:38.13 | 5:11.41 | 250363 | 273728


Track 1

Filename D:\Musak 2\Paul Smoker\Duocity in Brass & Wood\Duocity in Brass & Wood (CD2)\01. Greetings.wav

Pre-gap length 0:00:02.00

Peak level 100.0 %
Extraction speed 1.2 X
Track quality 100.0 %
Test CRC ED9384B4
Copy CRC ED9384B4
Copy OK

Track 2

Filename D:\Musak 2\Paul Smoker\Duocity in Brass & Wood\Duocity in Brass & Wood (CD2)\02. Mutant Swing.wav

Peak level 100.0 %
Extraction speed 1.5 X
Track quality 100.0 %
Test CRC 96919A32
Copy CRC 96919A32
Copy OK

Track 3

Filename D:\Musak 2\Paul Smoker\Duocity in Brass & Wood\Duocity in Brass & Wood (CD2)\03. If I Were a Bell.wav

Peak level 100.0 %
Extraction speed 1.7 X
Track quality 100.0 %
Test CRC 28BF9160
Copy CRC 28BF9160
Copy OK

Track 4

Filename D:\Musak 2\Paul Smoker\Duocity in Brass & Wood\Duocity in Brass & Wood (CD2)\04. Rage Against It.wav

Peak level 100.0 %
Extraction speed 1.8 X
Track quality 100.0 %
Test CRC 7D7EC7F5
Copy CRC 7D7EC7F5
Copy OK

Track 5

Filename D:\Musak 2\Paul Smoker\Duocity in Brass & Wood\Duocity in Brass & Wood (CD2)\05. On the River.wav

Peak level 76.1 %
Extraction speed 1.9 X
Track quality 99.9 %
Test CRC E127D4FC
Copy CRC E127D4FC
Copy OK

Track 6

Filename D:\Musak 2\Paul Smoker\Duocity in Brass & Wood\Duocity in Brass & Wood (CD2)\06. Burn Dialogue, Blue Monk.wav

Peak level 100.0 %
Extraction speed 2.2 X
Track quality 100.0 %
Test CRC 89D08B3D
Copy CRC 89D08B3D
Copy OK

Track 7

Filename D:\Musak 2\Paul Smoker\Duocity in Brass & Wood\Duocity in Brass & Wood (CD2)\07. Interval Loops, The Party`s Over.wav

Peak level 100.0 %
Extraction speed 2.2 X
Track quality 100.0 %
Test CRC 7EF6C1E7
Copy CRC 7EF6C1E7
Copy OK

No errors occurred

End of status report

==== Log checksum 4C05FA0696D2611506A712C7A15B44C01C87675D5B89DD35F2175AC2F441D629 ====


[CUETools log; Date: 19.01.2020 13:04:26; Version: 2.1.6]
[CTDB TOCID: GmXcujXszd6cjkcgxs9aDb7DYqY-] disk not present in database.
[AccurateRip ID: 001103c3-0065a6ab-610e4107] found.
Track [ CRC | V2 ] Status
01 [a739e310|df9de0c5] (1+0/1) Accurately ripped
02 [3217410f|a010ee0a] (1+0/1) Accurately ripped
03 [5369d6c1|db925136] (1+0/1) Accurately ripped
04 [185c9279|e1b77bb4] (1+0/1) Accurately ripped
05 [9aeebedd|df8f5886] (1+0/1) Accurately ripped
06 [c5c3abb4|0b67c32d] (1+0/1) Accurately ripped
07 [2384efe2|ab848ca5] (1+0/1) Accurately ripped

Track Peak [ CRC32 ] [W/O NULL] [ LOG ]
– 100,0 [6BB82341] [F78D27A2]
01 100,0 [ED9384B4] [071F516A] CRC32
02 100,0 [96919A32] [8B6D7E94] CRC32
03 100,0 [28BF9160] [AE84DF7A] CRC32
04 100,0 [7D7EC7F5] [8DA4BEAA] CRC32
05 76,1 [E127D4FC] [8AB6C0C7] CRC32
06 100,0 [89D08B3D] [0F4B1C73] CRC32
07 100,0 [7EF6C1E7] [23E26B0C] CRC32


Paul Smoker (with Ed Schuller, Dominic Duval) - Duocity in Brass & Wood (2003)

All thanks go to desordenado

Paul Smoker in my Blog

Download Paul Smoker (with Ed Schuller, Dominic Duval) - Duocity in Brass & Wood (2003):