Subcategories
Tags
Language
Tags

Paul Desmond Quartet - Like Someone In Love [Recorded 1975] (1992) (Repost)

Posted By: gribovar
Paul Desmond Quartet - Like Someone In Love [Recorded 1975] (1992) (Repost)

Paul Desmond Quartet - Like Someone In Love [Recorded 1975] (1992)
EAC Rip | FLAC (image+.cue+log) - 309 MB | MP3 CBR 320 kbps (LAME 3.93) - 145 MB | Covers included
Genre: Jazz | RAR 3% Rec. | Label: Telarchive (CD-83319)

In 1992, Telarc unveiled a series of performances from the vault on a short-lived label punningly entitled "Telarchive," beginning with this long-delayed encore to the original releases from Paul Desmond's "Canadian" quartet. Recorded live in Toronto's Bourbon Street Jazz Club several months before the live dates released on Horizon and Artists House, it finds Desmond growing comfortable with his new Toronto friends but not quite settled into their laid-back ways quite yet. There are passages in this session where Desmond sounds a bit uncharacteristically scattered and unfocused, where guitarist Ed Bickert becomes the more fluid and stable solo partner, and bassist (and engineer) Don Thompson takes a lengthy solo on every track. Desmond seems to produce his best work in the material that he seems most familiar with. The title track is the one that catches fire most brightly (with a wry assist from "We're in the Money") and "Things Ain't What They Used to Be" finds him working in some clever asides from, yes, Ravel's "Daphnis et Chloe." The wistful European melancholy of Django Reinhardt's "Nuages" suits him perfectly and Jobim's "Meditation" makes its first appearance on a Desmond recording. The boxy, confined live sound doesn't suit the late saxophonist - nor, obviously, the perfectionist standards at Telarc - but every precious unreleased note from Desmond is definitely worth sampling at whatever sonic level.
Tracklist:
01. Just Squeeze Me
02. Tangerine
03. Meditation
04. Nuages
05. Like Someone in Love
06. Things Ain't What They Used to Be

Total time: 01:01:09

Exact Audio Copy V0.99 prebeta 4 from 23. January 2008

EAC extraction logfile from 17. December 2009, 16:41

Paul Desmond / Like Someone In Love

Used drive : _NEC DVD_RW ND-3500AG Adapter: 0 ID: 0

Read mode : Secure
Utilize accurate stream : Yes
Defeat audio cache : Yes
Make use of C2 pointers : No

Read offset correction : 48
Overread into Lead-In and Lead-Out : No
Fill up missing offset samples with silence : Yes
Delete leading and trailing silent blocks : No
Null samples used in CRC calculations : Yes
Used interface : Native Win32 interface for Win NT & 2000

Used output format : User Defined Encoder
Selected bitrate : 768 kBit/s
Quality : High
Add ID3 tag : No
Command line compressor : C:\Program Files\Exact Audio Copy\FLAC\FLAC.EXE
Additional command line options : -6 -V -T "ARTIST=%a" -T "TITLE=%t" -T "ALBUM=%g" -T "DATE=%y" -T "TRACKNUMBER=%n" -T "GENRE=%m" -T "COMMENT=%e" %s -o %d


TOC of the extracted CD

Track | Start | Length | Start sector | End sector
––––––––––––––––––––––––––––-
1 | 0:00.00 | 8:45.12 | 0 | 39386
2 | 8:45.12 | 9:45.73 | 39387 | 83334
3 | 18:31.10 | 10:59.35 | 83335 | 132794
4 | 29:30.45 | 10:37.15 | 132795 | 180584
5 | 40:07.60 | 9:50.15 | 180585 | 224849
6 | 49:58.00 | 11:11.20 | 224850 | 275194


Range status and errors

Selected range

Filename J:\eMusic\Rip\Paul Desmond - Like Someone In Love.wav

Peak level 96.2 %
Range quality 99.9 %
Test CRC C78AE412
Copy CRC C78AE412
Copy OK

No errors occurred


AccurateRip summary

Track 1 cannot be verified as accurate (confidence 2) [FAD81544], AccurateRip returned [874B93D7]
Track 2 cannot be verified as accurate (confidence 2) [C6E51500], AccurateRip returned [F9957043]
Track 3 cannot be verified as accurate (confidence 2) [A0BFEAEC], AccurateRip returned [F3B8EA05]
Track 4 cannot be verified as accurate (confidence 2) [7CE2C4FB], AccurateRip returned [668AC9BA]
Track 5 cannot be verified as accurate (confidence 2) [11B1BA44], AccurateRip returned [0E429273]
Track 6 cannot be verified as accurate (confidence 2) [2926F740], AccurateRip returned [31B84437]

No tracks could be verified as accurate
You may have a different pressing from the one(s) in the database

End of status report

[CUETools log; Date: 08.11.2019 3:18:40; Version: 2.1.4]
[CTDB TOCID: o9uRh30m6gzovDeMoCy6vaDc7bk-] found.
Track | CTDB Status
1 | (55/56) Accurately ripped
2 | (55/56) Accurately ripped
3 | (56/56) Accurately ripped
4 | (56/56) Accurately ripped
5 | (56/56) Accurately ripped
6 | (56/56) Accurately ripped
[AccurateRip ID: 000e48d3-004ce10e-390e5506] found.
Track [ CRC | V2 ] Status
01 [fad81544|39436598] (02+03/47) Accurately ripped
02 [c6e51500|69cf4d31] (02+03/46) Accurately ripped
03 [a0bfeaec|0684368b] (02+03/47) Accurately ripped
04 [7ce2c4fb|bceda0ac] (02+03/46) Accurately ripped
05 [11b1ba44|d3016a8a] (02+03/47) Accurately ripped
06 [2926f740|bdef6357] (02+03/46) Accurately ripped
Offsetted by 560:
01 [874b93d7] (05/47) Accurately ripped
02 [f9957043] (05/46) Accurately ripped
03 [f3b8ea05] (05/47) Accurately ripped
04 [668ac9ba] (05/46) Accurately ripped
05 [0e429273] (05/47) Accurately ripped
06 [31b84437] (05/46) Accurately ripped
Offsetted by 1423:
01 [938c8753] (04/47) Accurately ripped
02 [a6c5159e] (04/46) Accurately ripped
03 [1ed92577] (04/47) Accurately ripped
04 [6800f45b] (04/46) Accurately ripped
05 [64880435] (04/47) Accurately ripped
06 [b11b5b46] (04/46) Accurately ripped
Offsetted by 1509:
01 [7767ee34] (02/47) Accurately ripped
02 [de24186f] (02/46) Accurately ripped
03 [e17b75d7] (02/47) Accurately ripped
04 [b981ec2d] (02/46) Accurately ripped
05 [a53f943d] (02/47) Accurately ripped
06 [60991c58] (02/46) Accurately ripped

Track Peak [ CRC32 ] [W/O NULL] [ LOG ]
– 96,2 [C78AE412] [416DD9C1] CRC32
01 88,6 [39379766] [0E7F9B31]
02 96,2 [ED594883] [23EA4CCE]
03 78,3 [4214AF27] [F6CDF7E5]
04 63,2 [3BE32316] [EB9EC3BC]
05 81,4 [F951F947] [53566359]
06 90,1 [42AFD2BE] [2ABAB049]

Thanks to intothe

See also: