Tags
Language
Tags

Paul Van Nevel, Huelgas Ensemble - Jacob Clement (2012)

Posted By: ArlegZ
Paul Van Nevel, Huelgas Ensemble - Jacob Clement (2012)

Paul Van Nevel, Huelgas Ensemble - Jacob Clement (2012)
EAC | FLAC | Image (Cue & Log) ~ 280 Mb | Total time: 63:08 | Scans included
Classical | Label: Deutsche Harmonia Mundi | # 88697780692 | Recorded: 2010

Der heute leider weitgehend unbekannte flämische Komponist Jacob Clement alias Clemens non Papa (circa 1510 bis 1515 - 1555) war neben Palästrina und Orlando di Lasso einer der führenden Vertreter der Renaissance. Einerseits wurde er für seine geistlichen Werke bei seinen Auftraggebern und Kollegen sehr hoch geschätzt, andererseits eilte ihm der Ruf des Lebemannes voraus, der weltlichen Freuden und Genüssen nicht gerade abgeneigt war. Vielleicht ist es diese Lebenserfahrung und Inspiration, die ihn auch zu einem hervorragenden Komponisten von Chansons und weltlichen Liedern gemacht hat. Seine auffällig virtuose Beherrschung des Kontrapunktes steht in jedem Fall außer Frage. Die regelrechte Flut von Drucken, Nachdrucken, Raubdrucken und Tabulaturen seiner Werke sind sein Zeuge.
Die Aufnahme des Huelgas Ensembles unter der Leitung von Paul van Nevel beschäftigt sich gänzlich mit dieser auf den ersten Blick scheinenden Widersprüchlichkeit dieses Meisters seiner Zeit. Aufgenommen wurde ein beeindruckender Querschnitt Jacob Clemens Schaffens mit einigen seiner geistlichen Werke, aber auch Chansons und seine berühmten "Souterliedekens" (Psalter-Lieder). Alle Werke sind Weltersteinspielungen.

Performer:
Huelgas Ensemble
Paul Van Nevel, direction

Track List:
Clemens non Papa (1510/15-1555/6)
01. Missa "à la fontaine du prez": Gloria
02. Jaquin Jaquet à 4
03. Plorer gemir et larmoyer my fault à 5
04. Motet à 5: Jerusalem surge
05. Missa "Spes Salutis": Agnus Dei à 4 & 6
06. Trois Souterliedekens à 3: I. Als ick riep met verlanghen
07. Trois Souterliedekens à 3: II. Welsalich zyn se hier op aerden
08. Trois Souterliedekens à 3: III. Hoort myn ghebet o Heere
09. Motet à 6: Fremuit spiritu Jesus
10. Missa "Gaude lux Donatiane": Kyrie à 5
11. Adieu mon esperance à 6
12. Je prends en gre & mourir m'y faulta a 4
13. Motet à 5: Qui concolabatur me
14. Missa "Caro mea": Sanctus à 5 & 3


Exact Audio Copy V1.3 from 2. September 2016

EAC extraction logfile from 15. November 2021, 17:22

Huelgas Ensemble / Clemens non Papa . Jacob Clement

Used drive : HL-DT-STDVD+-RW GT10N Adapter: 1 ID: 1

Read mode : Secure
Utilize accurate stream : Yes
Defeat audio cache : Yes
Make use of C2 pointers : No

Read offset correction : 102
Overread into Lead-In and Lead-Out : No
Fill up missing offset samples with silence : Yes
Delete leading and trailing silent blocks : No
Null samples used in CRC calculations : Yes
Used interface : Native Win32 interface for Win NT & 2000

Used output format : User Defined Encoder
Selected bitrate : 1024 kBit/s
Quality : High
Add ID3 tag : No
Command line compressor : C:\Program Files (x86)\Exact Audio Copy\FLAC\FLAC.EXE
Additional command line options : -6 -V -T "ARTIST=%artist%" -T "TITLE=%title%" -T "ALBUM=%albumtitle%" -T "DATE=%year%" -T "TRACKNUMBER=%tracknr%" -T "GENRE=%genre%" -T "COMMENT=%comment%" -T "BAND=%albuminterpret%" -T "ALBUMARTIST=%albuminterpret%" -T "COMPOSER=%composer%" %haslyrics%–tag-from-file=LYRICS="%lyricsfile%"%haslyrics% -T "DISCNUMBER=%cdnumber%" -T "TOTALDISCS=%totalcds%" -T "TOTALTRACKS=%numtracks%" %hascover%–picture="%coverfile%"%hascover% %source% -o %dest%


TOC of the extracted CD

Track | Start | Length | Start sector | End sector
––––––––––––––––––––––––––––-
1 | 0:00.00 | 5:25.44 | 0 | 24418
2 | 5:25.44 | 2:23.09 | 24419 | 35152
3 | 7:48.53 | 3:53.41 | 35153 | 52668
4 | 11:42.19 | 5:26.47 | 52669 | 77165
5 | 17:08.66 | 6:44.09 | 77166 | 107474
6 | 23:53.00 | 2:08.60 | 107475 | 117134
7 | 26:01.60 | 2:13.08 | 117135 | 127117
8 | 28:14.68 | 2:59.09 | 127118 | 140551
9 | 31:14.02 | 6:57.35 | 140552 | 171861
10 | 38:11.37 | 6:57.49 | 171862 | 203185
11 | 45:09.11 | 3:21.00 | 203186 | 218260
12 | 48:30.11 | 5:21.11 | 218261 | 242346
13 | 53:51.22 | 4:50.60 | 242347 | 264156
14 | 58:42.07 | 5:50.68 | 264157 | 290474


Range status and errors

Selected range

Filename C:\_RIPs\Clemens non Papa . Jacob Clement . Huelgas Ensemble\Jacob_Clement-Huelgas_Ensemble.wav

Peak level 98.8 %
Extraction speed 2.1 X
Range quality 99.9 %
Test CRC 70B9B3F5
Copy CRC 70B9B3F5
Copy OK

No errors occurred


AccurateRip summary

Track 1 accurately ripped (confidence 26) [7DD249C0] (AR v2)
Track 2 accurately ripped (confidence 26) [F24556E7] (AR v2)
Track 3 accurately ripped (confidence 26) [AF21565A] (AR v2)
Track 4 accurately ripped (confidence 26) [026056C3] (AR v2)
Track 5 accurately ripped (confidence 26) [120D9418] (AR v2)
Track 6 accurately ripped (confidence 26) [D64B88D9] (AR v2)
Track 7 accurately ripped (confidence 26) [A0DE1396] (AR v2)
Track 8 accurately ripped (confidence 26) [A44D3BFA] (AR v2)
Track 9 accurately ripped (confidence 25) [54770FA3] (AR v2)
Track 10 accurately ripped (confidence 26) [1866F1D9] (AR v2)
Track 11 accurately ripped (confidence 26) [E505E4C0] (AR v2)
Track 12 accurately ripped (confidence 26) [B6E68424] (AR v2)
Track 13 accurately ripped (confidence 26) [79E7A41C] (AR v2)
Track 14 accurately ripped (confidence 26) [4145AADE] (AR v2)

All tracks accurately ripped

End of status report

–– CUETools DB Plugin V2.1.6

[CTDB TOCID: 4wNJXRIxeH_7rY9xD_FsFdF2RWk-] found
Submit result: 4wNJXRIxeH_7rY9xD_FsFdF2RWk- has been confirmed
Track | CTDB Status
1 | (24/24) Accurately ripped
2 | (24/24) Accurately ripped
3 | (24/24) Accurately ripped
4 | (24/24) Accurately ripped
5 | (24/24) Accurately ripped
6 | (24/24) Accurately ripped
7 | (24/24) Accurately ripped
8 | (24/24) Accurately ripped
9 | (24/24) Accurately ripped
10 | (24/24) Accurately ripped
11 | (24/24) Accurately ripped
12 | (24/24) Accurately ripped
13 | (24/24) Accurately ripped
14 | (24/24) Accurately ripped


==== Log checksum 2D100834B39C0838B4C31670FCF4509B8BA22CF602C84526A4524B547C862E4A ====

Paul Van Nevel, Huelgas Ensemble - Jacob Clement (2012)

Thanks to the original releaser