Tags
Language
Tags

Paul Van Nevel, Huelgas Ensemble - Matheus de Perusio: Virelais, Ballades, Caccia (1998)

Posted By: ArlegZ
Paul Van Nevel, Huelgas Ensemble - Matheus de Perusio: Virelais, Ballades, Caccia (1998)

Paul Van Nevel, Huelgas Ensemble - Matheus de Perusio: Virelais, Ballades, Caccia (1998)
EAC | FLAC | Image (Cue & Log) ~ 357 Mb | Total time: 61:09 | Scans included
Classical | Label: Sony Classical | # SK 62928 | Recorded: 1996

Under the leadership of Paul Van Nevel, Belgium's Huelgas Ensemble continue their journey into medieval music on Perusio, a distinguished and imaginative collection of performances including "Helas Avril," "Ave Sancta Mundi Salus," "Gloria spiritus et alme" and "Laurea Martiri – Conlaudanda est."

Performer:
Huelgas Ensemble
Paul Van Nevel, director

Track List:
01. Helas Avril
02. Ave, sancta mundi salus - Agnus Dei
03. Puisque la mort
04. Gloria: Spiritus et alme
05. Heylas que feray
06. Gloria
07. Già da rete d'amor
08. Trover ne puis
09. Laurea martirii - Conlaudanda est


Exact Audio Copy V1.3 from 2. September 2016

EAC extraction logfile from 9. May 2021, 13:00

Huelgas Ensemble & Paul Van Nevel / Perusio . Virelais, Ballades, Caccia

Used drive : HL-DT-STDVD+-RW GT10N Adapter: 1 ID: 1

Read mode : Secure
Utilize accurate stream : Yes
Defeat audio cache : Yes
Make use of C2 pointers : No

Read offset correction : 102
Overread into Lead-In and Lead-Out : No
Fill up missing offset samples with silence : Yes
Delete leading and trailing silent blocks : No
Null samples used in CRC calculations : Yes
Used interface : Native Win32 interface for Win NT & 2000

Used output format : User Defined Encoder
Selected bitrate : 1024 kBit/s
Quality : High
Add ID3 tag : No
Command line compressor : C:\Program Files (x86)\Exact Audio Copy\FLAC\FLAC.EXE
Additional command line options : -6 -V -T "ARTIST=%artist%" -T "TITLE=%title%" -T "ALBUM=%albumtitle%" -T "DATE=%year%" -T "TRACKNUMBER=%tracknr%" -T "GENRE=%genre%" -T "COMMENT=%comment%" -T "BAND=%albuminterpret%" -T "ALBUMARTIST=%albuminterpret%" -T "COMPOSER=%composer%" %haslyrics%–tag-from-file=LYRICS="%lyricsfile%"%haslyrics% -T "DISCNUMBER=%cdnumber%" -T "TOTALDISCS=%totalcds%" -T "TOTALTRACKS=%numtracks%" %hascover%–picture="%coverfile%"%hascover% %source% -o %dest%


TOC of the extracted CD

Track | Start | Length | Start sector | End sector
––––––––––––––––––––––––––––-
1 | 0:00.00 | 7:58.40 | 0 | 35889
2 | 7:58.40 | 3:26.70 | 35890 | 51409
3 | 11:25.35 | 11:42.57 | 51410 | 104116
4 | 23:08.17 | 5:29.15 | 104117 | 128806
5 | 28:37.32 | 6:31.35 | 128807 | 158166
6 | 35:08.67 | 2:13.25 | 158167 | 168166
7 | 37:22.17 | 6:02.68 | 168167 | 195384
8 | 43:25.10 | 8:32.45 | 195385 | 233829
9 | 51:57.55 | 9:12.57 | 233830 | 275286


Range status and errors

Selected range

Filename C:\_RIPs\Perusio . Virelais, Ballades, Caccia . Huelgas Ensemble\Perusio-Virelais_Ballades_Caccia-Huelgas_Ensemble.wav

Peak level 66.2 %
Extraction speed 1.8 X
Range quality 99.9 %
Test CRC 0E2037F3
Copy CRC 0E2037F3
Copy OK

No errors occurred


AccurateRip summary

Track 1 accurately ripped (confidence 10) [3B5FA896] (AR v2)
Track 2 accurately ripped (confidence 10) [88005C0B] (AR v2)
Track 3 accurately ripped (confidence 9) [8AC67EEF] (AR v2)
Track 4 accurately ripped (confidence 10) [007E92E9] (AR v2)
Track 5 accurately ripped (confidence 10) [6B152199] (AR v2)
Track 6 accurately ripped (confidence 9) [02887F66] (AR v2)
Track 7 accurately ripped (confidence 10) [C0243624] (AR v2)
Track 8 accurately ripped (confidence 9) [B5477B87] (AR v2)
Track 9 accurately ripped (confidence 10) [F366062B] (AR v2)

All tracks accurately ripped

End of status report

–– CUETools DB Plugin V2.1.6

[CTDB TOCID: fnVIclsX4COjuc.bhllz1hstf1c-] found
Submit result: fnVIclsX4COjuc.bhllz1hstf1c- has been confirmed
Track | CTDB Status
1 | (11/12) Accurately ripped
2 | (11/12) Accurately ripped
3 | (11/12) Accurately ripped
4 | (11/12) Accurately ripped
5 | (11/12) Accurately ripped
6 | (11/12) Accurately ripped
7 | (11/12) Accurately ripped
8 | (11/12) Accurately ripped
9 | (11/12) Accurately ripped


==== Log checksum E841ED99177A592847789A3F30B58AD1D4C42E02D5B430DA217F665BB1CB4975 ====

Paul Van Nevel, Huelgas Ensemble - Matheus de Perusio: Virelais, Ballades, Caccia (1998)

Thanks to the original releaser